<?xml version="1.0" standalone="no"?>
<!DOCTYPE svg PUBLIC "-//W3C//DTD SVG 1.1//EN" "http://www.w3.org/Graphics/SVG/1.1/DTD/svg11.dtd" >
<svg xmlns="http://www.w3.org/2000/svg">
<defs>
  <font id="SpaceMax" horiz-adv-x="358.4">
    <font-face font-family="SpaceMax"
      units-per-em="256" ascent="256"
      descent="0" />
    <missing-glyph horiz-adv-x="0" />
    <glyph glyph-name="3d-29"
      unicode="&#xEA01;"
      horiz-adv-x="256" d="M122.767 220.25L122.5 195.5L85.25 176.739L48 157.978L48 112.727L48 67.476L28.5 57.741C17.775 52.387 9 47.537 9 46.963C9 46.39 9.907 44.143 11.015 41.971L13.03 38.021L33.288 48.136L53.547 58.251L90.773 39.574L128 20.896L165.227 39.574L202.453 58.251L222.712 48.136L242.97 38.021L244.985 41.971C246.093 44.143 247 46.39 247 46.963C247 47.537 238.225 52.387 227.5 57.741L208 67.476L208 112.727L208 157.978L170.75 176.739L133.5 195.5L133.233 220.25L132.965 245L128 245L123.035 245L122.767 220.25M159.17 170.415L190.327 154.83L159.151 138.886L127.975 122.942L96.821 138.885L65.668 154.827L96.584 170.36C113.588 178.902 127.615 185.916 127.756 185.946C127.897 185.976 142.033 178.987 159.17 170.415M123 74.997C123 49.504 122.652 36 121.994 36C121.44 36 107.04 42.976 89.994 51.503L59 67.006L59 106.506L59 146.006L91 130L123 113.994L123 74.997M197 106.503L197 67.006L166.006 51.503C148.96 42.976 134.56 36 134.006 36C133.348 36 133 49.504 133 74.997L133 113.994L164.75 129.943C182.213 138.715 196.613 145.916 196.75 145.946C196.887 145.976 197 128.226 197 106.503" />
    <glyph glyph-name="a-add"
      unicode="&#xEA02;"
      horiz-adv-x="256" d="M101.758 254.019C80.367 248.575 63.173 232.507 56.342 211.578C53.934 204.201 53.703 202.068 53.673 187C53.637 168.992 54.594 163.577 60.101 150.615C63.35 142.967 70.441 131.801 74.414 128.076C75.836 126.742 77 125.312 77 124.897C77 124.481 74.412 123.633 71.25 123.011C60.669 120.931 39.558 114.83 34.192 112.302C26.722 108.781 19.046 100.9 14.929 92.525L11.5 85.549L11.199 53.275L10.897 21L69.449 21L128 21L128 32L128 43L80 43L32 43L32 60.804C32 78.012 32.088 78.783 34.623 83.871C37.967 90.582 41.872 93.154 54.518 96.974C70.379 101.766 88.52 104.892 109.261 106.408C129.727 107.903 134.337 109.013 144.5 114.887C160.266 124.001 174.103 143.726 178.953 164C180.496 170.451 180.988 175.896 180.993 186.59C181.004 209.377 176.65 221.937 164.127 235.236C151.531 248.612 137.853 254.85 119.5 255.588C111.81 255.896 107.712 255.534 101.758 254.019M134.78 230.453C147.995 224.312 156.684 213.222 159.085 199.433C160.538 191.091 159.707 172.507 157.577 165.72C153.176 151.692 140.951 136.001 130.5 130.968C122.993 127.353 111.567 127.485 103.846 131.277C92.6 136.799 80.314 153.189 76.585 167.644C74.584 175.402 74.465 196.402 76.382 203.6C79.266 214.431 88.061 224.936 98.584 230.116C110.432 235.949 122.708 236.063 134.78 230.453M192 80L192 64L176 64L160 64L160 53.5L160 43L176 43L192 43L192 27L192 11L202.475 11L212.949 11L213.225 26.75L213.5 42.5L229.25 42.775L245 43.051L245 53.525L245 64L229 64L213 64L213 80L213 96L202.5 96L192 96L192 80" />
    <glyph glyph-name="android"
      unicode="&#xEA03;"
      horiz-adv-x="256" d="M64 64C64 59.584 67.584 56 72 56H88V20C88 13.376 93.376 8 100 8S112 13.376 112 20V56H144V20C144 13.376 149.376 8 156 8S168 13.376 168 20V56H184C188.416 56 192 59.584 192 64V168H64V64zM44 168C37.376 168 32 162.624 32 156V100C32 93.376 37.376 88 44 88S56 93.376 56 100V156C56 162.624 50.624 168 44 168zM212 168C205.376 168 200 162.624 200 156V100C200 93.376 205.376 88 212 88S224 93.376 224 100V156C224 162.624 218.624 168 212 168zM161.224 230.624L171.328 245.784C172.552 247.616 172.056 250.104 170.216 251.328C168.368 252.552 165.88 252.056 164.672 250.216L154.12 234.384C146.136 237.968 137.312 240 128 240S109.864 237.968 101.88 234.392L91.328 250.224C90.104 252.056 87.624 252.56 85.784 251.336S83.448 247.624 84.672 245.792L94.776 230.632C76.344 219.392 64 199.16 64 176H192C192 199.16 179.656 219.392 161.224 230.624zM104 200C99.584 200 96 203.584 96 208C96 212.416 99.584 216 104 216S112 212.416 112 208C112 203.584 108.416 200 104 200zM152 200C147.584 200 144 203.584 144 208C144 212.416 147.584 216 152 216S160 212.416 160 208C160 203.584 156.416 200 152 200z" />
    <glyph glyph-name="app-store"
      unicode="&#xEA04;"
      horiz-adv-x="256" d="M165.998 222.498L138.509 194.995L166.509 166.995L194.509 138.996L222.498 166.998L250.486 195L223 222.5C207.883 237.625 195.058 250 194.5 250C193.942 250 181.116 237.624 165.998 222.498M16 194.49L16 148.98L61.25 149.24L106.5 149.5L106.76 194.75L107.02 240L61.51 240L16 240L16 194.49M215.5 215L235.481 195L214.997 174.497L194.512 153.994L174.232 174.274L153.952 194.554L174.226 214.77C185.377 225.889 194.729 234.99 195.009 234.993C195.29 234.997 204.51 226 215.5 215M96 194.5L96 160L61.5 160L27 160L27 194.5L27 229L61.5 229L96 229L96 194.5M16 61.51L16 16L61.51 16L107.02 16L106.76 61.25L106.5 106.5L61.25 106.76L16 107.02L16 61.51M149.667 106.333C149.3 105.967 149 85.492 149 60.833L149 16L194.5 16L240 16L240 61.5L240 107L195.167 107C170.508 107 150.033 106.7 149.667 106.333M96 61.5L96 27L61.5 27L27 27L27 61.5L27 96L61.5 96L96 96L96 61.5M229 61.5L229 27L194.5 27L160 27L160 61.5L160 96L194.5 96L229 96L229 61.5" />
    <glyph glyph-name="apple"
      unicode="&#xEA05;"
      horiz-adv-x="256" d="M231.144 63.92C225.504 51.424 222.808 45.856 215.544 34.816C205.424 19.4 191.144 0.2 173.448 0.04C157.728 -0.104 153.688 10.264 132.352 10.1439999999999C111.016 10.0239999999999 106.568 -0.152 90.848 -1e-13C73.152 0.1599999999999 59.632 17.496 49.504 32.92C21.184 76.024 18.224 126.616 35.688 153.504C48.104 172.624 67.688 183.8 86.104 183.8C104.848 183.8 116.64 173.52 132.144 173.52C147.184 173.52 156.344 183.816 178.024 183.816C194.408 183.816 211.768 174.896 224.144 159.48C183.616 137.264 190.2 79.4 231.144 63.92L231.144 63.92zM163.872 210.792C171.752 220.896 177.728 235.168 175.552 249.752C162.688 248.872 147.648 240.688 138.856 230.016C130.88 220.336 124.296 205.976 126.856 192.016C140.896 191.576 155.432 199.96 163.872 210.792L163.872 210.792z" />
    <glyph glyph-name="arrow-down"
      unicode="&#xEA06;"
      horiz-adv-x="256" d="M133.656 10.344L211.312 88L200 99.312L136 35.312V248H120V35.312L56 99.312L44.688 88L122.344 10.344C125.472 7.216 130.528 7.216 133.656 10.344z" />
    <glyph glyph-name="arrow-left"
      unicode="&#xEA07;"
      horiz-adv-x="256" d="M10.344 133.656L88 211.312L99.312 200L35.312 136H248V120H35.312L99.312 56L88 44.688L10.344 122.344C7.216 125.472 7.216 130.528 10.344 133.656z" />
    <glyph glyph-name="arrow-right"
      unicode="&#xEA08;"
      horiz-adv-x="256" d="M245.656 133.656L168 211.312L156.688 200L220.688 136H8V120H220.688L156.688 56L168 44.688L245.656 122.344C248.784 125.472 248.784 130.528 245.656 133.656z" />
    <glyph glyph-name="arrow-up"
      unicode="&#xEA09;"
      horiz-adv-x="256" d="M133.656 245.656L211.312 168L200 156.688L136 220.688V8H120V220.688L56 156.688L44.688 168L122.344 245.656C125.472 248.784 130.528 248.784 133.656 245.656z" />
    <glyph glyph-name="bill"
      unicode="&#xEA0A;"
      horiz-adv-x="256" d="M28 130.385L28 8.77L30.25 10.203C31.488 10.991 39.588 16.044 48.25 21.432L64 31.229L79.393 21.614C87.86 16.326 95.333 12 96 12C96.667 12 104.14 16.326 112.607 21.614L128 31.229L143.393 21.614C151.86 16.326 159.333 12 160 12C160.667 12 168.14 16.326 176.607 21.614L192 31.229L207.75 21.432C216.413 16.044 224.513 10.991 225.75 10.203L228 8.77L228 130.385L228 252L128 252L28 252L28 130.385M220 134C220 73.5 219.716 24 219.369 24C219.022 24 213.006 27.6 206 32C198.994 36.4 192.705 40 192.024 40C191.344 40 183.86 35.674 175.393 30.386L160 20.771L144.607 30.386C136.14 35.674 128.667 40 128 40C127.333 40 119.86 35.674 111.393 30.386L96 20.771L80.607 30.386C72.14 35.674 64.656 40 63.976 40C63.295 40 57.006 36.4 50 32C42.994 27.6 36.978 24 36.631 24C36.284 24 36 73.5 36 134L36 244L128 244L220 244L220 134M120.355 211.017C114.056 209.685 106.953 205.65 102.427 200.834C97.132 195.199 95.521 192.494 93.59 185.991C89.674 172.806 93.41 159.408 103.644 149.928C108.836 145.119 111.676 143.471 118.009 141.59C144.907 133.602 170.401 159.082 162.416 185.972C158.158 200.308 145.851 210.269 131 211.399C127.425 211.671 122.635 211.499 120.355 211.017M140.262 200.904C146.096 197.98 149.725 194.387 152.789 188.5C156.526 181.318 156.504 170.653 152.735 163.362C142.203 142.984 113.884 142.984 103.235 163.362C99.563 170.389 99.407 181.306 102.883 188C106.978 195.885 113.182 200.924 121.5 203.12C126.178 204.355 135.596 203.243 140.262 200.904M68 112L68 108L104 108L140 108L140 112L140 116L104 116L68 116L68 112M164 112L164 108L176 108L188 108L188 112L188 116L176 116L164 116L164 112M68 80L68 76L104 76L140 76L140 80L140 84L104 84L68 84L68 80M164 80L164 76L176 76L188 76L188 80L188 84L176 84L164 84L164 80" />
    <glyph glyph-name="book-07"
      unicode="&#xEA0B;"
      horiz-adv-x="256" d="M124 205.552L9.264 243.796C8.044 244.2 6.708 244 5.66 243.244C4.616 242.492 4 241.284 4 240V56C4 54.276 5.1 52.748 6.736 52.204L124 13.116V205.552zM250.34 243.244C249.288 244 247.952 244.2 246.736 243.796L132 205.552V13.12L249.264 52.208C250.9 52.748 252 54.276 252 56V240C252 241.284 251.384 242.492 250.34 243.244z" />
    <glyph glyph-name="button-circle-play"
      unicode="&#xEA0C;"
      horiz-adv-x="256" d="M128 256C57.4186666666667 256 0 198.5813333333333 0 128S57.4186666666667 0 128 0S256 57.4186666666667 256 128S198.5813333333333 256 128 256zM96 74.6666666666667V181.3333333333334L181.3333333333333 128L96 74.6666666666667z" />
    <glyph glyph-name="card-update"
      unicode="&#xEA0D;"
      horiz-adv-x="256" d="M24.713 249.59C15.583 247.112 7.739 238.368 5.947 228.669C5.309 225.22 5.04 196.71 5.218 151.353C5.497 80.21 5.521 79.454 7.652 74.844C8.836 72.283 11.665 68.382 13.939 66.175C21.121 59.205 22.559 59 64.178 59L101 59L101 64L101 69L65.316 69C31.186 69 29.444 69.091 25.323 71.086C22.953 72.233 19.998 74.596 18.757 76.336C16.542 79.441 16.495 80.106 16.211 111.75L15.921 144L133.519 144L251.116 144L250.808 187.25L250.5 230.5L247.814 235.59C246.337 238.39 243.445 242.158 241.387 243.965C233.43 250.952 241.248 250.479 130 250.694C50.214 250.849 28.513 250.621 24.713 249.59M230.655 238.359C232.557 237.457 235.325 235.131 236.806 233.191C239.282 229.949 239.527 228.785 239.838 218.832L240.177 208L128 208L15.823 208L16.162 218.832C16.472 228.77 16.721 229.952 19.18 233.173C24.708 240.413 17.344 239.952 127.849 239.977C217.904 239.998 227.521 239.847 230.655 238.359M240 176L240 155L128 155L16 155L16 176L16 197L128 197L240 197L240 176M224 112.485L224 101.866L219.75 105.315C207.112 115.57 189.343 119.463 173.644 115.416C156.363 110.96 141.35 97.088 136.029 80.658C134.55 76.094 135.135 75.32 140.733 74.426C144.335 73.851 145.059 74.03 145.582 75.625C149.349 87.103 157.981 97.423 168.109 102.555C183.038 110.12 204.428 106.439 216.217 94.276L219.392 91L205.696 91L192 91L192 85.5L192 80L213.52 80L235.04 80L234.77 101.25L234.5 122.5L229.25 122.802L224 123.105L224 112.485M43 106.5L43 101L72 101L101 101L101 106.5L101 112L72 112L43 112L43 106.5M225.157 46.562C217.402 29.314 198.729 19.049 180.472 21.997C172.955 23.211 161.558 28.778 157.054 33.436L153.608 37L167.304 37L181 37L181 42.5L181 48L160 48L139 48L139 26.5L139 5L144 5L149 5L149 15.493L149 25.987L153.662 22.428C171.767 8.608 196.626 7.209 214.966 18.978C222.269 23.664 230.78 33.377 234.638 41.427C239.117 50.774 239.059 52.563 234.25 53.358C232.188 53.699 230.05 53.982 229.5 53.988C228.95 53.993 226.996 50.652 225.157 46.562" />
    <glyph glyph-name="cloud-download-93"
      unicode="&#xEA0E;"
      horiz-adv-x="256" d="M107 249.308C75.059 243.652 47.635 217.721 40.047 186C38.929 181.325 38.011 176.549 38.007 175.386C38.002 173.828 36.882 172.836 33.75 171.616C23.821 167.749 13.069 156.68 9.057 146.197C1.883 127.45 5.767 108.074 19.444 94.379C31.579 82.228 39.298 80 69.262 80L91.105 80L90.802 85.25L90.5 90.5L66.5 91C43.685 91.475 42.278 91.617 38 93.871C27.173 99.574 19.799 108.49 17.369 118.816C15.493 126.786 15.675 132.098 18.067 139.199C22.115 151.215 29.864 159.049 41.625 163.014L47.749 165.08L48.434 172.022C52.062 208.842 81.177 237.292 117.684 239.69C144.613 241.459 169.346 229.253 185.033 206.452C191.28 197.373 195.586 184.85 196.848 172.094L197.5 165.5L205 164.858C217.572 163.782 227.472 157.979 234.021 147.847C245.822 129.588 238.818 104.83 218.881 94.333C213.503 91.502 213.485 91.5 189.5 91L165.5 90.5L165.198 85.25L164.895 80L186.738 80C216.702 80 224.421 82.228 236.556 94.379C255.327 113.175 255.323 142.791 236.547 161.621C228.631 169.559 223.083 172.416 209.75 175.419C208.003 175.812 207 176.692 207 177.831C207 180.811 203.24 194.201 200.911 199.515C194.88 213.275 182.464 227.917 169.604 236.436C159.122 243.379 150.962 246.729 138.78 249.09C127.237 251.328 118.733 251.386 107 249.308M123 88.761L123 28.523L106.721 44.78L90.441 61.036L86.737 57.243L83.033 53.45L105.517 30.983L128 8.517L150.483 30.983L172.967 53.45L169.263 57.243L165.559 61.036L149.279 44.78L133 28.523L133 88.761L133 149L128 149L123 149L123 88.761" />
    <glyph glyph-name="contacts"
      unicode="&#xEA0F;"
      horiz-adv-x="256" d="M21.475 249.787C21.206 249.079 21.101 193.825 21.243 127L21.5 5.5L108 5.5L194.5 5.5L200.247 7.821C208.268 11.06 216.17 18.569 220.226 26.806L223.5 33.456L223.803 123.978C224.127 220.744 224.056 222.376 219.188 231.37C215.746 237.729 207.009 245.435 200.045 248.255L194.5 250.5L108.233 250.787C38.619 251.018 21.871 250.825 21.475 249.787M53 128L53 16L42.5 16L32 16L32 128L32 240L42.5 240L53 240L53 128M195.205 238.446C201.472 236.311 207.812 230.6 210.626 224.556L212.98 219.5L212.968 128C212.956 38.165 212.919 36.418 210.923 32C208.047 25.632 202.491 20.327 196.253 17.994C191.136 16.079 188.408 16 127.462 16L64 16L64 128L64 240L127.322 240C181.968 240 191.269 239.787 195.205 238.446M91 178.49L91 148.981L138.75 149.24L186.5 149.5L186.765 178.75L187.03 208L139.015 208L91 208L91 178.49M235 186.5L235 165L240 165L245 165L245 186.5L245 208L240 208L235 208L235 186.5M176 178.5L176 160L138.5 160L101 160L101 178.5L101 197L138.5 197L176 197L176 178.5M235 117.5L235 96L240 96L245 96L245 117.5L245 139L240 139L235 139L235 117.5M91 122.49L91 116.981L138.75 117.24L186.5 117.5L186.802 122.75L187.105 128L139.052 128L91 128L91 122.49" />
    <glyph glyph-name="cursor-pointer"
      unicode="&#xEA10;"
      horiz-adv-x="256" d="M84.5 250.34C75.163 248.144 69.903 244.135 66.351 236.507C64.021 231.504 64.02 231.467 64.01 187.75L64 144L56.678 144C52.638 144 47.284 143.294 44.734 142.425C38.305 140.234 31.745 134.159 29.054 127.903C26.907 122.913 26.843 121.832 27.221 97.116C27.612 71.634 27.63 71.458 30.579 63.5C32.562 58.148 37.349 49.707 45.041 38C51.365 28.375 58.78 17.018 61.519 12.763L66.5 5.026L139.281 5.013C196.609 5.003 212.158 5.265 212.514 6.25C213.74 9.65 230 119.164 230 124.023C230 141.031 217.727 155.941 200.5 159.865C195.813 160.932 114.313 174.998 112.806 174.999C112.424 175 111.974 188.162 111.806 204.25C111.516 232.001 111.389 233.705 109.342 237.5C105.298 244.993 99.136 249.177 90.5 250.293C88.3 250.578 85.6 250.599 84.5 250.34M93.51 238.56C95.406 237.768 97.864 235.631 98.974 233.81C100.888 230.671 100.993 228.833 100.996 198.25C100.999 178.373 101.367 166 101.958 166C102.484 166 124.953 162.22 151.889 157.6C194.198 150.343 201.553 148.824 205.935 146.439C215.029 141.489 219.412 133.529 219.115 122.5C219.011 118.65 215.443 93.225 211.187 66L203.447 16.5L137.838 16.243L72.228 15.986L58.364 37.203C37.978 68.401 38.043 68.214 37.351 97C36.772 121.088 37.422 124.598 43.358 129.402C46.839 132.221 47.942 132.532 55.592 132.853L64 133.205L64 117.05L64 100.895L69.25 101.198L74.5 101.5L75 166.545C75.467 227.346 75.619 231.771 77.325 234.375C79.275 237.349 84.044 239.897 87.782 239.961C89.037 239.982 91.615 239.352 93.51 238.56M117 80L117 48L122.5 48L128 48L128 80L128 112L122.5 112L117 112L117 80M160 80L160 48L165.5 48L171 48L171 80L171 112L165.5 112L160 112L160 80" />
    <glyph glyph-name="cut"
      unicode="&#xEA11;"
      horiz-adv-x="256" d="M186.6666666666667 170.6666666666667H154.6666666666667C151.7173333333333 170.6666666666667 149.3333333333333 168.2826666666667 149.3333333333333 165.3333333333334S151.7173333333333 160 154.6666666666667 160H186.6666666666667C189.616 160 192 162.384 192 165.3333333333334S189.616 170.6666666666667 186.6666666666667 170.6666666666667zM186.6666666666667 21.3333333333333H154.6666666666667C151.7173333333333 21.3333333333333 149.3333333333333 18.9493333333334 149.3333333333333 16S151.7173333333333 10.6666666666667 154.6666666666667 10.6666666666667H186.6666666666667C189.616 10.6666666666667 192 13.0506666666666 192 16S189.616 21.3333333333333 186.6666666666667 21.3333333333333zM122.6666666666667 21.3333333333333H90.6666666666667C87.7173333333333 21.3333333333333 85.3333333333333 18.9493333333334 85.3333333333333 16S87.7173333333333 10.6666666666667 90.6666666666667 10.6666666666667H122.6666666666667C125.616 10.6666666666667 128 13.0506666666666 128 16S125.616 21.3333333333333 122.6666666666667 21.3333333333333zM245.3333333333333 112C242.384 112 240 109.616 240 106.6666666666667V74.6666666666667C240 71.7173333333333 242.384 69.3333333333333 245.3333333333333 69.3333333333333S250.6666666666667 71.7173333333333 250.6666666666667 74.6666666666667V106.6666666666667C250.6666666666667 109.616 248.2826666666667 112 245.3333333333333 112zM245.3333333333333 170.6666666666667H218.6666666666667C215.7173333333333 170.6666666666667 213.3333333333333 168.2826666666667 213.3333333333333 165.3333333333334S215.7173333333333 160 218.6666666666667 160H240V138.6666666666667C240 135.7173333333334 242.384 133.3333333333334 245.3333333333334 133.3333333333334S250.6666666666667 135.7173333333334 250.6666666666667 138.6666666666667V165.3333333333334C250.6666666666667 168.2826666666667 248.2826666666667 170.6666666666667 245.3333333333333 170.6666666666667zM245.3333333333333 48C242.384 48 240 45.616 240 42.6666666666667V21.3333333333333H218.6666666666666C215.7173333333333 21.3333333333333 213.3333333333333 18.9493333333333 213.3333333333333 16S215.7173333333333 10.6666666666666 218.6666666666666 10.6666666666666H245.3333333333333C248.2826666666666 10.6666666666666 250.6666666666667 13.0506666666666 250.6666666666667 16V42.6666666666666C250.6666666666667 45.616 248.2826666666667 48 245.3333333333333 48zM58.6666666666667 21.3333333333333H37.3333333333333V42.6666666666667C37.3333333333333 45.616 34.9493333333333 48 32 48S26.6666666666667 45.616 26.6666666666667 42.6666666666667V16C26.6666666666667 13.0506666666667 29.0506666666667 10.6666666666667 32 10.6666666666667H58.6666666666667C61.616 10.6666666666667 64 13.0506666666667 64 16S61.616 21.3333333333333 58.6666666666667 21.3333333333333zM97.0666666666667 165.3333333333334L165.3333333333333 224C149.8666666666667 233.6 129.6 230.9333333333334 116.8 218.1333333333333L79.4666666666667 180.8L60.8 196.8C62.9333333333333 200.5333333333334 64 205.3333333333334 64 210.6666666666667C64 226.6666666666667 50.6666666666667 240 34.6666666666667 240S5.3333333333333 226.6666666666667 5.3333333333333 210.6666666666667S18.6666666666667 181.3333333333334 34.6666666666667 181.3333333333334C38.4 181.3333333333334 42.1333333333333 181.8666666666667 45.8666666666667 183.4666666666667L64 165.3333333333334L45.8666666666667 147.2C42.6666666666667 148.8 38.9333333333333 149.3333333333334 34.6666666666667 149.3333333333334C18.6666666666667 149.3333333333334 5.3333333333333 136 5.3333333333333 120S18.6666666666667 90.6666666666667 34.6666666666667 90.6666666666667S64 104 64 120C64 125.3333333333334 62.9333333333333 130.1333333333334 60.2666666666667 133.8666666666667L78.9333333333333 149.8666666666667L116.2666666666667 112.5333333333334C129.6 99.7333333333334 149.8666666666667 97.0666666666667 165.3333333333333 106.6666666666667L97.0666666666667 165.3333333333334zM34.6666666666667 192C24.5333333333333 192 16 200.5333333333333 16 210.6666666666667C16 220.8 24.5333333333333 229.3333333333334 34.6666666666667 229.3333333333334S53.3333333333333 220.8 53.3333333333333 210.6666666666667C53.3333333333333 200.5333333333333 44.8 192 34.6666666666667 192zM34.6666666666667 101.3333333333333C24.5333333333333 101.3333333333333 16 109.8666666666667 16 120C16 130.1333333333333 24.5333333333333 138.6666666666667 34.6666666666667 138.6666666666667S53.3333333333333 130.1333333333333 53.3333333333333 120C53.3333333333333 109.8666666666667 44.8 101.3333333333333 34.6666666666667 101.3333333333333z" />
    <glyph glyph-name="data-download-2"
      unicode="&#xEA12;"
      horiz-adv-x="256" d="M123 159C123 117.2 122.666 83 122.257 83C121.848 83 109.7 94.807 95.262 109.238L69.01 135.476L65.264 131.731L61.519 127.985L94.759 94.744L128 61.504L161.241 94.744L194.481 127.985L190.736 131.731L186.99 135.476L160.738 109.238C146.3 94.807 134.152 83 133.743 83C133.334 83 133 117.2 133 159L133 235L128 235L123 235L123 159M11.006 58.75C11.009 42.893 11.443 30.946 12.101 28.575C13.581 23.243 23.068 13.843 28.616 12.211C31.713 11.3 56.468 11.002 128.616 11.01L224.5 11.02L229.538 13.366C235.483 16.134 242.551 23.724 243.983 28.877C244.539 30.882 244.991 44.227 244.994 58.75L245 85L240 85L235 85L234.976 61.25C234.963 48.187 234.549 35.762 234.056 33.638C233.01 29.128 228.845 24.329 224.282 22.377C221.627 21.241 204.814 21 128.097 21C64.972 21 34.227 21.341 32.315 22.061C28.128 23.64 23.113 28.935 21.996 32.956C21.454 34.905 21.009 47.412 21.006 60.75L21 85L16 85L11 85L11.006 58.75" />
    <glyph glyph-name="data-download"
      unicode="&#xEA13;"
      horiz-adv-x="256" d="M124.928 57.436A4 4 0 0 1 131.072 57.436L191.072 129.436A4 4 0 0 1 188 136H140V232A12 12 0 0 1 116 232V136H68A4 4 0 0 1 64.928 129.436zM244 84A4 4 0 0 1 240 80V36A16 16 0 0 0 224 20H32A16 16 0 0 0 16 36V80A4 4 0 0 1 8 80V36A24.024 24.024 0 0 1 32 12H224A24.024 24.024 0 0 1 248 36V80A4 4 0 0 1 244 84z" />
    <glyph glyph-name="down-arrow"
      unicode="&#xEA14;"
      horiz-adv-x="256" d="M9.984 189.483L4.535 183.967L66.268 122.234L128 60.502L189.744 122.246L251.488 183.99L245.74 189.738L239.992 195.486L183.996 139.496L128 83.507L72.247 139.253C41.582 169.914 16.254 195 15.963 195C15.671 195 12.98 192.517 9.984 189.483" />
    <glyph glyph-name="download"
      unicode="&#xEA15;"
      horiz-adv-x="256" d="M144 128L144 240L112 240L112 128L73.6 128L128 64L182.4 128zM240 0H16C6.4 0 0 6.4 0 16V160C0 169.6 6.4 176 16 176H64V144H32V32H224V144H192V176H240C249.6 176 256 169.6 256 160V16C256 6.4 249.6 0 240 0z" />
    <glyph glyph-name="email"
      unicode="&#xEA16;"
      horiz-adv-x="256" d="M16.008 238.684C10.952 237.074 2.438 228.401 1.102 223.5C-0.531 217.512 -0.424 54.168 1.216 48.616C2.839 43.123 11.123 34.839 16.616 33.216C22.56 31.46 233.44 31.46 239.384 33.216C244.877 34.839 253.161 43.123 254.784 48.616C256.424 54.168 256.531 217.512 254.898 223.5C253.463 228.762 244.998 237.095 239.384 238.771C233.778 240.445 21.278 240.362 16.008 238.684M237.548 221.354L240 218.708L240 136L240 53.292L237.548 50.646L235.095 48L128 48L20.905 48L18.452 50.646L16 53.292L16 136.191L16 219.091L18.455 221.545L20.909 224L128.002 224L235.095 224L237.548 221.354M36.365 190.831C33.301 189.347 31.673 185.763 32.452 182.216C32.998 179.73 41.261 172.537 79.105 141.598C116.146 111.316 125.66 104 128 104C130.34 104 139.854 111.316 176.895 141.598C225.656 181.462 226.032 181.836 222.996 187.508C221.681 189.965 218.054 192 214.991 192C213.938 192 194.271 176.608 171.288 157.797C148.305 138.985 128.825 123.593 128 123.593C127.175 123.593 107.695 138.985 84.712 157.797C56.729 180.701 42.193 191.978 40.712 191.932C39.495 191.895 37.539 191.399 36.365 190.831M46.288 105.712C34.118 93.542 32 90.969 32 88.358C32 84.047 35.966 80 40.191 80C43.09 80 45.155 81.688 57.738 94.349C70.121 106.807 72 109.119 72 111.894C72 116.199 68.171 120 63.834 120C60.976 120 58.824 118.247 46.288 105.712M186.455 117.545C184.872 115.963 184 113.955 184 111.894C184 109.119 185.879 106.807 198.262 94.349C210.845 81.688 212.91 80 215.809 80C220.034 80 224 84.047 224 88.358C224 90.969 221.882 93.542 209.712 105.712C197.176 118.247 195.024 120 192.166 120C190.041 120 188.056 119.147 186.455 117.545" />
    <glyph glyph-name="folder-17"
      unicode="&#xEA17;"
      horiz-adv-x="256" d="M95.992 212C99.776 212 103.336 210.22 105.604 207.192L126 180H228V244C228 248.42 224.42 252 220 252H36C31.58 252 28 248.42 28 244V212H95.992zM248 172H122L99.2 202.4C98.444 203.408 97.256 204 96 204H8C5.788 204 4 202.208 4 200V24C4 12.972 12.972 4 24 4H232C243.028 4 252 12.972 252 24V168C252 170.208 250.212 172 248 172z" />
    <glyph glyph-name="folder-18"
      unicode="&#xEA18;"
      horiz-adv-x="256" d="M44.616 167.796C46.248 172.7 50.824 176 56 176H196V212C196 214.208 194.212 216 192 216H97.656L74.828 238.828C74.08 239.58 73.064 240 72 240H8C5.788 240 4 238.208 4 236V45.94L44.616 167.796zM196 16H8C6.716 16 5.508 16.616 4.752 17.664C4 18.708 3.796 20.048 4.204 21.268L52.204 165.268C52.752 166.9 54.276 168 56 168H244C245.284 168 246.492 167.384 247.248 166.336C248 165.292 248.204 163.952 247.796 162.732L199.796 18.732C199.248 17.1 197.724 16 196 16z" />
    <glyph glyph-name="folder-user"
      unicode="&#xEA19;"
      horiz-adv-x="256" d="M4.232 134.586L4.5 29.172L7.5 24.913C9.15 22.57 12.483 19.606 14.907 18.327L19.315 16L128 16L236.685 16L241.093 18.327C243.517 19.606 246.85 22.57 248.5 24.912L251.5 29.171L251.771 118.586L252.042 208L187.044 208L122.047 208L110 224L97.953 240L50.959 240L3.964 240L4.232 134.586M106 216L118.047 200L181.04 200L244.033 200L243.767 115.519L243.5 31.038L240.231 27.769L236.962 24.5L128 24.5L19.038 24.5L15.769 27.769L12.5 31.038L12.236 131.519L11.972 232L52.962 232L93.953 232L106 216M120.734 174.97C101.996 170.265 91.751 151.42 97.961 133.083C101.902 121.445 108.9 113.681 118.788 109.98C121.696 108.891 125.841 108 128 108C136.76 108 147.157 114.008 152.938 122.41C166.009 141.408 159.889 165.091 139.744 173.47C134.969 175.456 125.609 176.195 120.734 174.97M138.622 165.177C147.173 160.78 151.45 153.549 151.442 143.5C151.436 135.28 148.607 128.848 142.336 122.799C130.526 111.405 115.988 115.008 107.221 131.5C103.865 137.813 103.473 148.443 106.391 154C112.868 166.336 126.903 171.203 138.622 165.177M115 95.4C104.82 94.165 97.808 92.576 91.178 90.001C74.86 83.665 72 79.201 72 60.065L72 48L128 48L184 48L184 60.032C184 73.498 182.929 77.402 177.772 82.73C174.145 86.478 162.681 91.527 153.138 93.579C146.489 95.009 121.578 96.198 115 95.4M146.065 86.602C154.335 85.259 166.045 81.28 170.801 78.195C174.583 75.743 176 71.751 176 63.55L176 56L128 56L80 56L80 63.55C80 75.231 81.62 77.345 94.5 82.476C107.68 87.727 128.751 89.413 146.065 86.602" />
    <glyph glyph-name="google"
      unicode="&#xEA1A;"
      horiz-adv-x="256" d="M243.064 149.816H128.52V100.728H193.44C183.04 68 157.44 57.088 128 57.088A70.912 70.912 0 1 0 173.528 182.288L209.2 216.264A120 120 0 1 1 128 8C194.168 8 253.976 51.64 243.064 149.816z" />
    <glyph glyph-name="handshake"
      unicode="&#xEA1B;"
      horiz-adv-x="256" d="M39.996 204.496L8.526 173.014L17.763 163.738L27 154.462L27 143.731L27 133L32 133L37 133L37 146.225L37 159.45L30.267 166.234L23.535 173.019L47.495 196.995L71.455 220.97L75.546 216.955L79.637 212.939L93.069 213.22L106.5 213.5L106.802 218.75L107.105 224L95.329 224L83.554 224L77.511 229.99L71.467 235.979L39.996 204.496M178.515 230.015L172.563 224L158.031 223.985C129.675 223.956 125.374 221.813 98.182 194.162C74.161 169.735 72 166.836 72 159.039C72 151.822 74.437 147.294 80.279 143.653C83.755 141.487 86.043 140.816 89.85 140.846C95.927 140.893 97.877 141.873 118.5 155.252L134.5 165.632L139 162.41C144.693 158.335 153.758 155.684 161.549 155.817L167.6 155.92L186.582 136.71C219.905 102.988 222 100.642 222 97.056C222 92.583 220.382 90.057 216.467 88.422C211.617 86.395 208.829 87.789 199.747 96.783L191.993 104.46L188.303 100.77L184.613 97.08L194.639 86.774C200.183 81.076 204.971 75.25 205.35 73.743C206.424 69.463 203.712 64.196 199.536 62.451C194.396 60.303 191.213 62.051 180.521 72.894C175.582 77.902 171.104 82 170.568 82C170.033 82 168.121 80.571 166.32 78.825L163.044 75.65L172.022 66.37C180.213 57.903 181 56.747 181 53.18C181 48.199 178.005 44.279 173.562 43.446C168.992 42.588 166.864 43.879 157.247 53.341L148.995 61.461L145.299 57.766L141.604 54.07L148.302 47.132C153.94 41.292 155 39.647 155 36.732C155 32.175 151.871 28.341 146.946 26.866C144.776 26.215 143 25.504 143 25.285C143 25.065 143.503 22.886 144.119 20.443C145.412 15.309 146.988 14.881 153.5 17.896C158.442 20.184 162.39 24.295 164.503 29.351C166.002 32.941 166.33 33.161 169.351 32.594C177.817 31.006 188.422 38 191.1 46.938C192.263 50.821 192.497 51.001 196.408 51.022C205.435 51.07 213.978 57.957 215.823 66.671C216.385 69.327 216.611 72.692 216.325 74.149C215.877 76.436 216.205 76.886 218.723 77.439C225.926 79.021 232.956 88.437 232.956 96.5C232.956 103.981 230.196 107.603 204.658 133.641C191.096 147.469 180 159.017 180 159.305C180 159.592 181.837 161.178 184.081 162.828C186.326 164.479 189.654 167.572 191.476 169.701L194.79 173.573L190.842 176.888L186.893 180.203L181.096 174.673C169.053 163.186 153.203 163.182 140.93 174.663L136.066 179.212L131.283 176.259C128.652 174.635 118.745 168.287 109.266 162.153C99.787 156.019 90.984 151 89.704 151C87.091 151 83.466 153.957 82.553 156.834C81.423 160.393 83.833 163.705 99.484 180.108C130.524 212.638 131.132 212.971 159.462 212.989L176.424 213L180.485 216.985L184.545 220.97L208.505 196.995L232.465 173.019L225.733 166.234L219 159.45L219 146.225L219 133L224 133L229 133L229 143.731L229 154.462L238.239 163.74L247.478 173.018L215.972 204.524L184.467 236.029L178.515 230.015M38.5 119.531C37.95 119.335 36.236 118.895 34.691 118.554C28.139 117.104 19.066 105.488 19.028 98.5C18.979 89.625 26.023 79.837 33.463 78.441C36.613 77.85 37.002 77.434 37.022 74.639C37.056 69.733 40.287 63.798 45.346 59.344C49.961 55.282 57.571 52.238 60.398 53.323C61.412 53.712 62.062 52.996 62.498 51.01C63.26 47.539 70.131 39.501 74.082 37.458C75.651 36.646 78.568 35.643 80.565 35.228C83.627 34.592 84.403 33.868 85.526 30.602C88.129 23.03 98.382 15.044 105.5 15.044C115.118 15.044 128.902 28.687 128.978 38.282C129.05 47.397 118.343 58.733 109.159 59.265C105.753 59.462 105.003 59.901 104.488 62C102.885 68.527 92.707 78 87.297 78C85.936 78 84.693 78.741 84.361 79.75C84.044 80.713 82.686 83.841 81.342 86.701C78.402 92.965 70.955 98.928 65.092 99.714C61.523 100.193 61.171 100.527 60.625 103.946C59.807 109.06 56.179 114.09 51.461 116.649C47.665 118.709 40.602 120.28 38.5 119.531M45.405 107.861C49.034 106.208 51.306 100.939 49.944 97.334C48.438 93.349 44.22 89.207 40.932 88.485C37.682 87.771 32.565 90.075 31.03 92.945C28.862 96.995 29.811 101.046 33.882 105.118C37.986 109.222 40.898 109.915 45.405 107.861M69.452 85.347C74.776 79.864 74.358 77.038 67.16 69.84C59.922 62.602 57.476 62.289 51.882 67.882C46.034 73.73 46.659 76.828 55.341 85.023C60.919 90.289 64.57 90.373 69.452 85.347M88.266 66.163C95.275 61.541 95.914 56.096 90.155 50.042C85.523 45.173 81.687 44.71 77.206 48.48C73.707 51.424 71.466 56.255 72.659 58.279C74.247 60.972 78.599 65.676 80.549 66.807C83.304 68.405 85.092 68.256 88.266 66.163M114.118 45.118C119.504 39.731 119.32 37.034 113.143 30.857C106.966 24.68 104.269 24.496 98.882 29.882C93.496 35.269 93.68 37.966 99.857 44.143C106.034 50.32 108.731 50.504 114.118 45.118" />
    <glyph glyph-name="icon-remittances"
      unicode="&#xEA1C;"
      horiz-adv-x="252.06153846153848" d="M125.7235692307693 18.7470769230769C109.8121846153846 18.7470769230769 94.4955076923077 22.1735384615384 80.2107076923077 28.9319384615384L87.0439384615385 36.4740923076923C100.0251076923077 30.3300923076923 111.2576 28.4238769230769 125.7235692307693 28.4238769230769C179.1212307692308 28.4238769230769 222.5624615384616 71.8651076923077 222.5624615384616 125.2706461538461C222.5624615384616 178.6643692307692 179.1212307692308 222.1056 125.7235692307692 222.1056C72.3298461538462 222.1056 28.8846769230769 178.6643692307692 28.8846769230769 125.2667076923077C28.8846769230769 120.8792615384615 28.7665230769231 120.0955076923077 29.3572923076923 115.7159384615384L20.1924923076923 110.7534769230769A107.23249230769231 107.23249230769231 0 0 0 19.2039384615385 125.2667076923077C19.2039384615385 184.0049230769231 66.9892923076923 231.790276923077 125.7235692307692 231.790276923077C184.4617846153846 231.790276923077 232.2471384615385 184.0049230769231 232.2471384615385 125.2667076923077C232.2471384615385 66.5284923076923 184.4617846153846 18.7470769230769 125.7235692307692 18.7470769230769M120.8871384615385 246.3192615384616H130.567876923077V256H120.8871384615385zM193.5163076923077 222.1095384615385H203.1970461538462V231.790276923077H193.5163076923077zM159.6179692307692 241.4788923076923H169.3026461538462V251.1596307692308H159.6179692307692zM241.9357538461539 125.2667076923077H251.6125538461539V134.9513846153846H241.9357538461539zM237.0914461538462 86.5358769230769H246.7761230769231V96.2166153846154H237.0914461538462zM237.0914461538462 164.0014769230769H246.7761230769231V173.6861538461539H237.0914461538462zM217.7260307692308 197.8998153846154H227.4028307692308V207.5805538461538H217.7260307692308zM120.8832 22.7524923076923H130.5639384615385V226.9499076923077H120.8832zM36.2889846153846 168.8457846153846H215.1581538461539V178.5304615384615H36.2889846153846zM114.1405538461539 72.0068923076923H215.1581538461539V81.6915692307692H114.1405538461539zM150.6658461538462 22.7485538461538L143.1355076923077 28.8413538461539C167.5933538461539 59.0808615384615 178.9873230769231 89.7181538461539 178.9873230769231 125.2667076923077C178.9873230769231 162.0361846153846 167.3294769230769 193.5399384615385 143.3560615384615 221.5620923076923L150.7209846153846 227.8636307692308C176.2579692307692 198.0022153846154 188.672 164.4465230769231 188.672 125.2667076923077C188.672 87.3826461538462 176.5927384615384 54.8076307692308 150.6658461538461 22.7485538461539M72.5819076923077 131.6667076923077L62.9051076923077 132.0369230769231C64.2835692307692 168.3692307692308 76.6582153846154 199.7154461538461 100.7340307692308 227.8596923076923L108.0989538461539 221.5581538461538C85.4921846153846 195.1428923076923 73.8816 165.7344 72.5819076923077 131.6667076923077M59.0769230769231 11.819323076923L67.2531692307692 15.7538461538462L71.4515692307692 7.0222769230769L63.2792615384615 3.0916923076923zM105.7870769230769 66.4418461538461A47.293046153846156 47.293046153846156 0 0 0 84.1373538461538 37.1633230769231A47.2064 47.2064 0 0 0 48.1201230769231 31.7794461538462A47.277292307692306 47.277292307692306 0 0 0 18.8455384615385 53.4331076923077A47.17095384615385 47.17095384615385 0 0 0 13.4498461538461 89.4464A47.261538461538464 47.261538461538464 0 0 0 35.1113846153846 118.7249230769231A47.30092307692308 47.30092307692308 0 0 0 59.5298461538462 125.5699692307692C63.3974153846154 125.5699692307692 67.3004307692308 125.0697846153846 71.1286153846154 124.1166769230769C96.5710769230769 117.7678769230769 112.1358769230769 91.8961230769231 105.7870769230769 66.4418461538461M115.9286153846154 81.6876307692308C114.3689846153846 105.472 97.5990153846154 126.6294153846154 73.2868923076923 132.7300923076923C73.0742153846154 132.7655384615385 72.8615384615385 132.8324923076923 72.6488615384616 132.8679384615385A55.92615384615385 55.92615384615385 0 0 1 30.5388307692308 126.3143384615385C29.9716923076923 125.9598769230769 29.4045538461539 125.6054153846154 28.8728615384615 125.2509538461538A55.922215384615384 55.922215384615384 0 0 1 4.8403692307692 91.6125538461539C1.2248615384615 76.9732923076923 3.4579692307692 61.7984 11.2561230769231 48.8605538461538A56.08369230769231 56.08369230769231 0 0 1 45.9539692307692 23.1620923076923C50.5304615384615 22.0317538461538 55.1384615384615 21.4646153846154 59.7110153846154 21.4646153846154C68.1865846153846 21.4646153846154 76.5124923076923 23.3787076923077 84.1688615384615 27.1714461538461C85.6930461538462 27.8803692307692 87.2172307692308 28.6956307692308 88.6705230769231 29.5817846153846C90.624 30.7515076923077 92.4987076923077 32.0236307692308 94.2710153846154 33.4099692307692A55.741046153846156 55.741046153846156 0 0 1 114.3689846153846 64.2835692307693C115.0070153846154 66.8672 115.4678153846154 69.4587076923077 115.7198769230769 72.0068923076923A52.42092307692308 52.42092307692308 0 0 1 115.9286153846154 81.6876307692308M69.6004923076923 84.3815384615384C68.2180923076923 78.848 59.7110153846154 81.6876307692307 56.9501538461539 82.3611076923077L59.392 92.1403076923077C62.1568 91.4313846153846 71.0498461538462 90.1592615384615 69.6004923076923 84.3815384615385M68.1117538461539 68.6434461538462C66.5836307692308 62.5467076923077 56.3436307692308 65.8432 53.0471384615385 66.6584615384616L55.7056 77.4340923076923C59.0414769230769 76.5833846153846 69.6753230769231 74.9528615384616 68.1117538461539 68.6434461538462M82.5344 85.3740307692308C83.5977846153846 92.2820923076923 78.3202461538462 96.0078769230769 71.1286153846154 98.4851692307693L73.4641230769231 107.8468923076923L67.7533538461539 109.2647384615385L65.4532923076923 100.1550769230769C63.9645538461539 100.5095384615385 62.4049230769231 100.864 60.8807384615385 101.2184615384616L63.1847384615385 110.4344615384616L57.4739692307693 111.8523076923077L55.1384615384615 102.4590769230769C53.8978461538462 102.7426461538461 52.6887384615385 103.0262153846154 51.4875076923077 103.3097846153846V103.3452307692307L43.6184615384615 105.3302153846153L42.0942769230769 99.2256S46.2414769230769 98.2764307692307 46.2414769230769 98.2016C48.5809230769231 97.5990153846153 48.9747692307692 96.0748307692307 48.8999384615385 94.8736L42.5196307692308 69.1751384615384C42.2360615384615 68.4662153846153 41.4916923076923 67.4382769230769 39.8966153846154 67.8281846153846C39.6839384615385 67.8281846153846 35.7494153846154 68.8521846153846 35.7494153846154 68.8521846153846L32.9137230769231 62.3340307692307L40.3180307692308 60.4908307692307C41.7043692307692 60.1363692307692 43.0513230769231 59.7819076923077 44.3982769230769 59.4274461538461L42.0233846153846 49.9278769230769L47.7302153846154 48.5100307692308L50.0696615384615 57.9032615384615C51.6332307692308 57.4779076923077 53.1534769230769 57.088 54.6382769230769 56.7335384615385L52.3027692307692 47.3757538461538L58.0056615384615 45.9579076923077L60.3844923076923 55.4220307692308C70.0967384615385 53.5788307692308 77.4340923076923 54.3192615384615 80.5179076923077 63.1492923076923C82.9991384615385 70.2385230769231 80.3761230769231 74.3148307692308 75.2758153846154 76.9732923076923C78.9897846153846 77.824 81.7939692307692 80.3052307692308 82.5344 85.3740307692308" />
    <glyph glyph-name="key-2"
      unicode="&#xEA1D;"
      horiz-adv-x="256" d="M245.3333333333333 250.6666666666667H197.3333333333333A5.333333333333333 5.333333333333333 0 0 1 193.5626666666667 249.104L97.52 153.0666666666667A72 72 0 1 1 152.0693333333333 101.8666666666667L169.104 118.9066666666667A5.333333333333333 5.333333333333333 0 0 1 170.6666666666667 122.6666666666667V149.3333333333334H197.3333333333333A5.333333333333333 5.333333333333333 0 0 1 202.6666666666667 154.6666666666667V181.3333333333334H229.3333333333333A5.333333333333333 5.333333333333333 0 0 1 233.104 182.896L249.104 198.896A5.333333333333333 5.333333333333333 0 0 1 250.6666666666667 202.6666666666667V245.3333333333334A5.333333333333333 5.333333333333333 0 0 1 245.3333333333333 250.6666666666667zM74.6666666666667 53.3333333333333A21.333333333333332 21.333333333333332 0 1 0 96 74.6666666666667A21.333333333333332 21.333333333333332 0 0 0 74.6666666666667 53.3333333333333z" />
    <glyph glyph-name="key"
      unicode="&#xEA1E;"
      horiz-adv-x="256" d="M146.505 202.012L97.509 153.001L94.005 153.722C88.105 154.936 72.863 154.337 66 152.622C62.425 151.729 55.225 148.907 50 146.352C37.437 140.207 25.491 128.601 19.275 116.5C9.026 96.549 8.131 72.899 16.896 53.57C25.68 34.196 39.732 21.526 60.481 14.269C70.218 10.864 87.555 10.033 98.422 12.451C117.807 16.763 136.901 31.04 145.87 47.928C153.747 62.758 156.795 84.743 152.795 97.866C151.776 101.207 151.84 101.304 161.384 110.884L171 120.536L171 134.742L171 148.949L186.75 149.225L202.5 149.5L202.775 165.25L203.051 181L217.294 181L231.538 181L241.287 190.786L251.036 200.572L250.768 225.536L250.5 250.5L223 250.762L195.5 251.023L146.505 202.012M240 222.277L240 204.554L233.779 198.277L227.558 192L209.779 192L192 192L192 176L192 160L176 160L160 160L160 142.267L160 124.534L150.021 114.517L140.041 104.5L141.568 99.5C145.696 85.985 144.091 69.398 137.263 55C133.056 46.129 121.784 34.19 113 29.302C102.324 23.362 95.57 21.578 84 21.643C65.107 21.75 52.156 26.857 39.98 39C27.451 51.494 21.605 65.19 21.624 82C21.645 99.701 27.019 113.006 39 125.02C54.306 140.369 74.846 146.861 94.649 142.61L100.798 141.29L150.145 190.645L199.492 240L219.746 240L240 240L240 222.277M64 98.923C46.747 91.13 42.713 69.382 56.048 56.048C69.769 42.326 92.558 47.184 99.479 65.305C101.855 71.527 101.2 82.322 98.147 87.261C90.673 99.356 76.028 104.357 64 98.923M81.061 89.4C84.121 88.587 89.231 82.205 89.925 78.329C91.806 67.83 85.064 59.012 75.151 59.004C65.761 58.996 59.845 64.549 59.245 73.935C58.479 85.931 68.192 92.817 81.061 89.4" />
    <glyph glyph-name="left-arrow"
      unicode="&#xEA1F;"
      horiz-adv-x="256" d="M121.999 189.499L60.504 127.998L122.247 66.255L183.99 4.512L189.738 10.26L195.486 16.008L139.496 72.004L83.507 128L139.484 183.984L195.462 239.969L190.015 245.484C187.019 248.518 184.327 251 184.031 251C183.736 251 155.821 223.325 121.999 189.499" />
    <glyph glyph-name="letter-2"
      unicode="&#xEA20;"
      horiz-adv-x="256" d="M240 240H16C6.4 240 0 233.6 0 224V201.6L128 129.6L256 200V224C256 233.6 249.6 240 240 240zM120 97.6L0 164.8V32C0 22.4 6.4 16 16 16H240C249.6 16 256 22.4 256 32V164.8L136 97.6C131.52 95.36 124.48 95.36 120 97.6z" />
    <glyph glyph-name="letter"
      unicode="&#xEA21;"
      horiz-adv-x="256" d="M16.008 238.684C10.952 237.074 2.438 228.401 1.102 223.5C-0.534 217.501 -0.427 38.176 1.216 32.616C2.839 27.123 11.123 18.839 16.616 17.216C22.56 15.46 233.44 15.46 239.384 17.216C244.877 18.839 253.161 27.123 254.784 32.616C256.427 38.176 256.534 217.501 254.898 223.5C253.463 228.762 244.998 237.095 239.384 238.771C233.778 240.445 21.278 240.362 16.008 238.684M237.548 221.354C239.976 218.734 240 218.52 239.964 199.604L239.927 180.5L183.964 150.75L128 121L72.036 150.75L16.073 180.5L16.036 199.795C16 218.971 16.015 219.106 18.455 221.545L20.909 224L128.002 224L235.095 224L237.548 221.354M72.799 132.437C102.114 116.796 126.954 104 128 104C129.046 104 153.886 116.796 183.201 132.437C212.515 148.077 237.287 161.175 238.25 161.544C239.905 162.178 240 158.828 240 99.753L240 37.292L237.548 34.646L235.095 32L128 32L20.905 32L18.452 34.646L16 37.292L16 99.753C16 158.828 16.095 162.178 17.75 161.544C18.712 161.175 43.485 148.077 72.799 132.437" />
    <glyph glyph-name="link-broken"
      unicode="&#xEA22;"
      horiz-adv-x="256" d="M124 128L124 16L128 16L132 16L132 128L132 240L128 240L124 240L124 128M51.513 186.825C48.77 186.302 42.731 184.096 38.091 181.922C31.153 178.67 28.222 176.508 21.567 169.734C15.986 164.053 12.459 159.418 10.194 154.787C1.907 137.842 2.036 117.851 10.541 100.885C15.53 90.934 27.652 78.876 37.401 74.166C48.421 68.842 54.361 68.037 82.75 68.017L108 68L108 72L108 76L83.25 76.015C64.967 76.026 56.864 76.415 52.24 77.506C35.131 81.539 21.516 93.588 14.957 110.5C13.003 115.537 12.63 118.347 12.63 128C12.63 137.653 13.003 140.463 14.957 145.5C21.428 162.183 34.209 173.833 50.656 178.04C57.258 179.728 61.762 180 83.16 180L108 180L108 184L108 188L82.25 187.888C68.088 187.827 54.256 187.348 51.513 186.825M148 184L148 180L172.84 180C194.238 180 198.742 179.728 205.344 178.04C243.798 168.205 256.911 119.472 228.627 91.511C225.257 88.18 219.758 84.014 216.407 82.253C206.118 76.845 200.426 76.031 172.75 76.015L148 76L148 72L148 68L173.25 68.017C201.639 68.037 207.579 68.842 218.599 74.166C228.348 78.876 240.47 90.934 245.459 100.885C253.972 117.866 254.109 137.47 245.834 154.599C243.474 159.484 240.14 163.906 234.422 169.734C227.758 176.527 224.869 178.657 217.922 181.9C213.29 184.063 206.83 186.32 203.566 186.916C200.303 187.512 186.465 188 172.816 188L148 188L148 184M72 128L72 124L90 124L108 124L108 128L108 132L90 132L72 132L72 128M148 128L148 124L166 124L184 124L184 128L184 132L166 132L148 132L148 128" />
    <glyph glyph-name="logo-500px"
      unicode="&#xEA23;"
      horiz-adv-x="256" d="M93.41176 143.26632C93.44352 140.28472 96.1716 137.6712 97.80112 136.10928L98.31312 135.61528C101.10776 132.8664 103.76984 131.47272 106.22416 131.47272C108.25688 131.47272 109.50944 132.43416 109.95296 132.8472C111.18408 133.99032 125.10968 148.10072 126.43792 149.44672L141.96792 133.9668C143.4056 132.34712 144.96848 131.53544 146.78984 131.48536C149.26984 131.48536 151.97224 132.95992 154.82184 135.86856C161.52312 142.71104 158.17008 146.4004 156.54856 148.18424L140.81328 163.9244L157.22304 180.45032C160.8217600000001 184.34416 157.6446400000001 188.48232 154.47488 191.6524C149.87232 196.25496 145.43168 197.44272 142.58568 194.82008L126.26872 178.47496L109.76848 194.97984C108.89416 195.81784 107.79128 196.2608 106.57912 196.2608C104.38016 196.2608 101.77856 194.774 98.84584 191.8412C93.77096 186.7676 92.6828 183.25992 95.32416 180.46168L111.82872 164.00752L95.42136 147.5708C94.07168 146.22288 93.39528 144.77456 93.41176 143.26632zM121.04296 255.75056C74.9056 252.24088 38.76488 211.66128 38.76488 163.36688V10.6568C38.76488 1.8108 45.4892 0 55.5852 0C65.68136 0 72.40568 1.8108 72.40568 10.6568V163.72584C72.40568 193.81528 94.29632 219.65152 122.23848 222.54576C138.27984 224.1804 153.6996 219.16112 165.69312 208.34392C177.46544 197.732 184.21848 182.47568 184.22488 166.48224C184.22488 161.90536 181.98448 146.99856 171.75384 133.16208C164.0168 122.70712 149.35984 110.25208 123.36968 110.25208C123.22864 110.24888 123.03968 110.25208 122.87608 110.25208C116.2096 110.25208 110.51416 109.938 109.418 94.14008C108.684 83.5088 108.74488 78.75568 117.92744 77.4768C134.3088 75.20432 151.0104 78.40632 167.56472 87.00872C195.82728 101.71376 214.76288 129.5755200000001 216.98736 159.72912C218.92008 185.9179200000001 209.47456 211.4657600000001 191.0710400000001 229.8277600000001C172.5968 248.25376 147.08432 257.68968 121.04296 255.75056z" />
    <glyph glyph-name="logo-angellist"
      unicode="&#xEA24;"
      horiz-adv-x="256" d="M38.14904 74.29016C38.14904 94.74096 46.8368 105.53776 63.74904 110.18032C61.07192 116.87312 59.73336 121.80904 59.73336 124.98816C59.73336 136.75672 74.60464 151.34112 85.83536 151.34112C88.67984 151.34112 92.02624 150.58816 95.87456 149.08232C87.8432 172.0052 82.07064 189.40648 78.55688 201.28624C73.96928 216.76928 67.82848 236.90312 78.55688 248.97248C82.73984 253.65752 88.34512 256 95.37256 256C107.4196 256 121.8928 231.32024 138.79216 181.9608L143.0588 169.66272C149.46056 185.66712 169.10544 251.23136 191.24704 251.23136C197.93984 251.23136 203.21048 248.97256 207.0588 244.45488C217.87736 232.284 211.50184 214.26112 207.0588 198.52544C203.54512 186.31104 198.02352 169.57904 190.49408 148.32936C200.03136 145.98688 206.89144 141.4692 211.07448 134.7764C215.59216 127.5816 217.85096 116.4548 217.85096 101.396C217.85096 71.61296 208.98296 47.26792 191.24704 28.36072C173.17648 9.4536 150.2536 0 122.4784 0C88.1764 0 58.05064 20.14792 44.67448 47.43528C40.32416 56.47056 38.14904 65.42224 38.14904 74.29016zM54.46272 75.54512C54.46272 65.06112 61.46144 52.40664 67.76472 43.9216C82.52864 24.83648 101.83448 16.56472 124.48632 16.56472C146.07064 16.56472 164.22488 24.67976 178.94904 40.90984C193.50592 56.9725600000001 200.78432 77.302 200.78432 101.89808C200.78432 110.30992 200.76168 122.89224 194.50984 128.25104C189.99216 132.09944 181.12424 135.44584 167.90592 138.29024C154.6876 141.302 140.63272 142.80792 125.7412 142.80792C119.98616 142.80792 116.95688 141.93904 116.95688 136.2824C116.95688 129.42224 120.80528 124.57 128.502 121.72552C136.868 118.21176 150.67192 116.45496 169.91376 116.45496H176.9412000000001C180.8748800000001 116.45496 184.3676000000001 114.4 185.47456 105.91376C178.2596 98.6988 166.37496 97.7304 158.36864 91.60792C151.67584 86.7556000000001 146.3216 80.98312 142.30592 74.29024C138.4576 67.76472 136.53336 61.57392 136.53336 55.71768C136.53336 52.20392 137.36992 47.93728 139.04312 42.91768C140.88368 37.39608 141.80368 33.79872 141.80368 32.12552C141.75952 30.57224 141.30192 29.49024 139.41992 28.73728C131.63968 26.9804 128.08368 30.78696 124.73728 37.14512C121.8928 42.49936 120.30328 49.35952 119.96864 57.72552C118.95552 57.38776 115.28712 57.47456 114.19608 57.47456C114.36344 56.638 114.44704 55.63408 114.44704 54.4628C114.44704 49.4432 112.52288 45.17656 108.67448 41.6628C104.82608 38.14904 100.30848 36.39224 95.12152 36.39224C87.25744 36.39224 79.30976 40.15696 71.2784 47.6864C63.24704 55.38312 59.23136 62.91256 59.23136 70.27464C59.23136 74.64304 61.10008 76.912 64 79.81192C68.18304 74.6249600000001 71.02744 71.0276 72.53336 69.0197600000001C79.5608 59.1478400000001 85.91896 54.2119200000001 91.60784 54.2119200000001C94.80216 54.2119200000001 97.3804 56.5784000000001 97.3804 58.2276000000001C97.3804 59.5661600000001 96.37648 61.9923200000001 94.36864 65.5060800000001C91.4328 71.0108000000001 79.8508000000001 86.3643200000001 73.7882400000001 91.35704C71.2784000000001 93.69952 69.4379200000001 94.8708 68.26664 94.8708C62.61912 94.87056 54.46272 87.62176 54.46272 75.54512zM77.05096 123.48232C77.05096 121.3072 78.38952 117.54248 81.06664 112.18824C86.00136 102.67128 97.60312 87.31584 106.41568 79.5608C110.43136 76.2144 113.44312 74.5412 115.45096 74.5412C118.02624 74.5412 120.72152 77.604 120.72152 80.31376C120.72152 82.3216 119.2156 87.17392 116.20384 94.87064C112.05824 104.93848 103.24088 123.3656 94.87048 130.25888C92.19336 132.76872 89.59992 134.0236 87.09008 134.0236C83.50952 134.02352 77.05096 127.46288 77.05096 123.48232zM88.34512 231.90592C88.34512 226.21704 90.35296 217.26536 94.36864 205.05104C98.04968 193.17128 103.57128 177.27584 110.93336 157.3648C114.72312 159.63864 123.9 158.55896 128.75296 158.11776L111.43528 208.31384C106.75032 221.69936 103.06928 230.4 100.39216 234.41568C98.21696 237.92944 96.04184 239.68624 93.86664 239.68624C90.2268 239.68624 88.34512 235.57568 88.34512 231.90592zM130.00784 103.90592C131.51376 100.0576 133.10328 95.87456 134.77648 91.35688C138.12288 95.20528 141.46928 98.38432 144.81568 100.89416C139.71048 101.9152 135.60128 102.04144 130.00784 103.90592zM156.3608 155.10592L173.17648 152.09416C180.70592 172.84184 186.4784 189.49024 190.49416 202.03928C192.80784 209.53552 199.51112 226.6232 195.01184 232.40792C193.49088 235.06952 188.80416 235.86544 183.4667200000001 227.38832C180.2876800000001 222.536 176.6902400000001 214.08632 172.6745600000001 202.03928L156.3608 155.10592z" />
    <glyph glyph-name="logo-behance"
      unicode="&#xEA25;"
      horiz-adv-x="256" d="M103.31584 136.58088C103.31584 136.58088 127.54112 138.38056 127.54112 166.79C127.54112 195.20008 107.7204 209.06424 82.61416 209.06424H36.4016H35.04392H0V50.29824H35.04392H36.4016H82.61408C82.61408 50.29824 133.04688 48.70856 133.04688 97.1592C133.04696 97.15928 135.24896 136.58088 103.31584 136.58088zM36.4016 180.84728H76.6676H82.61416C82.61416 180.84728 93.84568 180.84728 93.84568 164.32984S87.23864 145.41744 79.75112 145.41744H36.4016V180.84728zM80.48416 78.51544H36.4016V120.9444H82.61408C82.61408 120.9444 99.35144 121.16424 99.35144 99.14192C99.35152 80.7796 87.10912 78.69968 80.48416 78.51544zM200.31008 168.67096C139.25632 168.67096 139.31152 107.67208 139.31152 107.67208S135.12168 46.9808 200.31184 46.9808C200.31184 46.9808 254.6381600000001 43.87784 254.6381600000001 89.20032H226.6984C226.6984 89.20032 227.6292 72.12872 201.24272 72.12872C201.24272 72.12872 173.30256 70.26 173.30256 99.75384H255.56904C255.56904 99.75376 264.56936 168.67096 200.31008 168.67096zM225.14424 120.9444H172.99136C172.99136 120.9444 176.40632 145.41744 200.93112 145.41744C225.45624 145.41744 225.14424 120.9444 225.14424 120.9444zM166.15568 200H231.65696V184H166.15568V200z" />
    <glyph glyph-name="logo-blogger"
      unicode="&#xEA26;"
      horiz-adv-x="256" d="M248.8 156.8C243.2 159.2 220 156.8 213.6 162.4C208.8 166.4 208.8 174.4 207.2 184C204 200.8 203.2 204.8 200 211.2C188.8000000000001 235.2 161.6 255.2 137.6 255.2H80.8C36.8 256 0.8 219.2 0.8 175.2V80.8C0.8 36 36.8 0 81.6 0H174.4C219.2 0 255.2 36 255.2 80.8L256 146.4C255.2 146.4 255.2 154.4 248.8 156.8zM82.4 189.6H127.2C136 189.6 142.4 182.4 142.4 174.4C142.4 165.6 135.2 159.2 127.2 159.2H82.4C73.6 159.2 67.2 166.4 67.2 174.4C67.2 183.2 73.6 189.6 82.4 189.6zM173.6 66.4H82.4C73.6 66.4 67.2 73.6 67.2 81.6C67.2 90.4 74.4 96.8 82.4 96.8H173.6C182.4 96.8 188.8 89.6 188.8 81.6C188.8 73.6 181.6 66.4 173.6 66.4z" />
    <glyph glyph-name="logo-buffer"
      unicode="&#xEA27;"
      horiz-adv-x="256" d="M121.66584 254.59328L6.24136 200.66696C2.77816 199.04896 2.79256 194.1192 6.26504 192.52136L122.57888 139.00224C126.0196 137.41912 129.9804 137.41912 133.42104 139.00224L249.73488 192.52136C253.20744 194.1192 253.22176 199.04896 249.75856 200.66696L134.33416 254.59328C130.3196 256.46888 125.68032 256.46888 121.66584 254.59328zM249.75864 131.45512L225.92024 142.59248C222.46496 144.2068 218.47424 144.2184 215.0096 142.62424L133.42112 105.0832C129.9804 103.50008 126.0196 103.50008 122.57896 105.0832L40.99048 142.62416C37.52584 144.21832 33.53512 144.20672 30.07984 142.5924L6.24144 131.45504C2.77824 129.83704 2.79264 124.90728 6.26512 123.30944L122.57896 69.79032C126.01968 68.20712 129.9804 68.20712 133.42112 69.79032L249.73496 123.30944C253.20744 124.90728 253.22184 129.83712 249.75864 131.45512zM249.75864 62.85208L225.92024 73.98944C222.46496 75.60376 218.47424 75.61536 215.0096 74.0212L133.42112 36.48016C129.9804 34.89704 126.0196 34.89704 122.57896 36.48016L40.99048 74.02112C37.52584 75.61528 33.53512 75.60368 30.07984 73.98936L6.24144 62.852C2.77824 61.234 2.79264 56.30424 6.26512 54.7064L122.57896 1.18728C126.01968 -0.39592 129.9804 -0.39592 133.42112 1.18728L249.73496 54.7064C253.20744 56.30432 253.22184 61.23408 249.75864 62.85208z" />
    <glyph glyph-name="logo-buysellads"
      unicode="&#xEA28;"
      horiz-adv-x="256" d="M76 248L180 248L256 8L184.8 8L128.8 209.6L92 83.2L164 83.2L74.4 8L0 8z" />
    <glyph glyph-name="logo-codepen"
      unicode="&#xEA29;"
      horiz-adv-x="256" d="M256 168.8C256 168.8 256 168.8 256 168.8C256 169.6 256 169.6 256 170.4C256 170.4 256 170.4 256 171.2C256 171.2 256 172 256 172C256 172 256 172 256 172.8C256 172.8 256 173.6 256 173.6C256 173.6 256 173.6 256 174.4C256 174.4 256 175.2 255.2 175.2C255.2 175.2 255.2 175.2 255.2 176C255.2 176 255.2 176.8 254.4 176.8C254.4 176.8 254.4 176.8 253.6 177.6C253.6 177.6 252.8 177.6 252.8 178.4C252.8 178.4 252.8 178.4 252 178.4C252 178.4 252 178.4 252 178.4L134.4 254.4C130.4 256.8 125.6 256.8 122.4 254.4L4.8 176C4.8 176 4.8 176 4.8 176C4.8 176 4.8 176 4 176C4 176 3.2 176 3.2 175.2C3.2 175.2 3.2 175.2 2.4 174.4C2.4 174.4 2.4 174.4 1.6 173.6C1.6 173.6 1.6 173.6 1.6 172.8C1.6 172.8 1.6 172 0.8 172C0.8 172 0.8 172 0.8 171.2C0.8 171.2 0.8 170.4 0.8 170.4C0.8 170.4 0.8 170.4 0.8 169.6C0.8 169.6 0.8 168.8 0.8 168.8C0.8 168.8 0.8 168.8 0.8 168C0.8 168 0.8 167.2000000000001 0.8 167.2000000000001C0.8 167.2000000000001 0.8 167.2000000000001 0.8 166.4C0.8 165.6 0.8 165.6 0.8 164.8000000000001V87.2000000000001C0.8 86.4 0.8 86.4 0.8 85.6000000000001C0.8 85.6000000000001 0.8 85.6000000000001 0.8 84.8C0.8 84.8 0.8 84 0.8 84C0.8 84 0.8 84 0.8 83.2C0.8 83.2 0.8 82.4 0.8 82.4C0.8 82.4 0.8 82.4 0.8 81.6C0.8 81.6 0.8 80.8 0.8 80.8C0.8 80.8 0.8 80.8 0.8 80C0.8 80 0.8 79.2 1.6 79.2C1.6 79.2 1.6 79.2 1.6 78.4C1.6 78.4 1.6 77.5999999999999 2.4 77.5999999999999C2.4 77.5999999999999 2.4 77.5999999999999 3.2 76.7999999999999C3.2 76.7999999999999 4 76.7999999999999 4 75.9999999999999C4 75.9999999999999 4 75.9999999999999 4.8 75.9999999999999C4.8 75.9999999999999 4.8 75.9999999999999 4.8 75.9999999999999L121.6 -2.4000000000001C123.2 -4.0000000000001 125.6 -4.0000000000001 128 -4.0000000000001C130.4 -4.0000000000001 132 -3.2000000000001 134.4 -2.4000000000001L251.2 80C251.2 80 251.2 80 251.2 80C251.2 80 251.2 80 252 80C252 80 252.8 80 252.8 80.8C252.8 80.8 252.8 80.8 253.6 81.6C253.6 81.6 253.6 81.6 254.4000000000001 82.4C254.4000000000001 82.4 254.4000000000001 82.4 254.4000000000001 83.2000000000001C254.4000000000001 83.2000000000001 254.4000000000001 84.0000000000001 255.2000000000001 84.0000000000001C255.2000000000001 84.0000000000001 255.2000000000001 84.0000000000001 255.2000000000001 84.8000000000001C255.2000000000001 84.8000000000001 255.2000000000001 85.6000000000001 255.2000000000001 85.6000000000001C255.2000000000001 85.6000000000001 255.2000000000001 85.6000000000001 255.2000000000001 86.4000000000001C255.2000000000001 86.4000000000001 255.2000000000001 87.2000000000001 255.2000000000001 87.2000000000001C255.2000000000001 87.2000000000001 255.2000000000001 87.2000000000001 255.2000000000001 88.0000000000001C255.2000000000001 88.0000000000001 255.2000000000001 88.8000000000001 255.2000000000001 88.8000000000001C255.2000000000001 88.8000000000001 255.2000000000001 88.8000000000001 255.2000000000001 89.6000000000001C255.2000000000001 90.4000000000002 255.2000000000001 90.4000000000002 255.2000000000001 91.2000000000001V168.8000000000001C256 167.2 256 168 256 168.8zM139.2 224.8L225.6 167.2L187.2 141.6L139.2 173.6V224.8zM116.8 224.8V173.6L68.8 141.6L30.4 167.2L116.8 224.8zM22.4 146.4L49.6 128L22.4 109.6V146.4zM116.8 31.2L31.2 88.8L69.6 114.4L117.6 82.4V31.2zM128 101.6L88.8 128L128 154.4L167.2 128L128 101.6zM139.2 31.2V82.4L187.2 114.4L225.6 88.8L139.2 31.2zM233.6 109.6L206.4 128L233.6 146.4V109.6z" />
    <glyph glyph-name="logo-creative-market"
      unicode="&#xEA2A;"
      horiz-adv-x="256" d="M256 156C256 165.6 252 224 252 224C252 233.6 248.8 239.2 244 244C240 248 233.6 252 224 252C224 252 165.6 256 156 256C141.6 256 132.8 256.8 115.2 238.4C106.4 229.6 11.2 134.4 7.2 130.4C3.2 126.4 -10.4 110.4 12.8 87.2L88 12C111.2 -11.2 127.2 2.4 131.2 6.4C135.2 10.4 230.4 105.6 239.2 114.4C256.8 132.8 256 142.4 256 156zM154.4 124.8L187.2 109.6L175.2 88L144.8 108C144 108.8 143.2 108.8 142.4 108.8C141.6 108.8 140.8 108.8 140 108C138.4 107.2 137.6 105.6 137.6 104L140 68H116C116 68 116 68 116 68C116 68 117.6 104 117.6 104C117.6 105.6 116.8 107.2 115.2 108C113.6 108.8 112 108.8 111.2 108L83.2 88L70.4 108.8L103.2 124.8C104.8 125.6 105.6 127.2 105.6 128.8C105.6 130.4 104.8 132 103.2 132.8L70.4 148L82.4 169.6L112.8 149.6C114.4 148.8 116 148.8 116.8 149.6C118.4 150.4 119.2 152 119.2 153.6L116.8 189.6H140.8L139.2 153.6C139.2 152 140 150.4 141.6 149.6C143.2 148.8 144.8 148.8 145.6 149.6L175.2 169.6L188 148.8L155.2000000000001 132.8C153.6000000000001 132 152.8000000000001 130.4 152.8000000000001 128.8C152 127.2 152.8 125.6 154.4 124.8zM210.4 193.6C201.6 193.6 195.2 200.8 195.2 208.8C195.2 217.6 202.4 224 210.4 224C219.2 224 225.6 216.8 225.6 208.8C225.6 200 218.4 193.6 210.4 193.6z" />
    <glyph glyph-name="logo-crunchbase"
      unicode="&#xEA2B;"
      horiz-adv-x="256" d="M109.6 110.4C103.2 96 88.8 86.4 72 86.4C49.6 86.4 30.4 104.8 30.4 128C30.4 150.4 48.8 169.6 72 169.6C88.8 169.6 103.2 159.2 109.6 144.8H141.6C134.4 176.8 105.6 200 72 200C32.8 200 0 168 0 128S32 56 72 56C105.6 56 133.6 79.2 141.6 110.4H109.6zM256 193.6C247.2 197.6 237.6 200 227.2 200C216.8 200 207.2 196.8 198.4 191.2V195.2H168.8V134.4C168.8 124.8 168.8 61.6 168.8 61.6H198.4C198.4 61.6 198.4 94.4 198.4 125.6C198.4 137.6 198.4 145.6 200 151.2V152C201.6 157.6 204.8 161.6 211.2 165.6C215.2 168 220 170.4 227.2 170.4S238.4 168.8 243.2 165.6L256 193.6z" />
    <glyph glyph-name="logo-deviantart"
      unicode="&#xEA2C;"
      horiz-adv-x="256" d="M208 256L160.8 256L154.4 249.6L132.8 207.2L128 204.8L48 204.8L48 140.8L92.8 140.8L95.2 136.8L48 47.2L48 0L95.2 0L100.8 5.6L123.2 48L128 51.2L208 51.2L208 115.2L164 115.2L160 119.2L208 208.8z" />
    <glyph glyph-name="logo-dribbble"
      unicode="&#xEA2D;"
      horiz-adv-x="256" d="M128 0C57.6 0 0 57.6 0 128S57.6 256 128 256S256 198.4 256 128S198.4 0 128 0zM236 110.4C232 112 202.4 120.8 168 115.2C182.4 76 188 44 189.6 37.6C213.6 53.6 231.2 80 236 110.4zM170.4 27.2C168.8 36.8 162.4 70.4 147.2 110.4C147.2 110.4 146.4 110.4 146.4 110.4C84.8 88.8 62.4 46.4 60.8 42.4C79.2 28 102.4 19.2 128 19.2C143.2 18.4 157.6 21.6 170.4 27.2zM46.4 54.4C48.8 58.4 79.2 108 135.2 126.4C136.8 127.2 138.4 127.2 139.2 128C136.8 134.4 133.6 140.8 130.4 146.4C76 130.4 23.2 130.4 18.4 131.2C18.4 130.4 18.4 128.8 18.4 128C18.4 100 29.6 74.4 46.4 54.4zM20.8 150.4C25.6 150.4 70.4 150.4 121.6 164C103.2 196 84 223.2 80.8 227.2C51.2 212 28 184 20.8 150.4zM102.4 234.4C105.6 230.4 125.6 203.2 143.2 170.4C182.4 184.8 198.4 207.2 200.8 209.6C181.6 226.4 156 236.8 128 236.8C119.2 236.8 110.4 236 102.4 234.4zM212.8 196.8C210.4 193.6 192 170.4 152 153.6C154.4 148 156.8 143.2 159.2 137.6C160 136 160.8 133.6 161.6 132C197.6 136.8 234.4 129.6 237.6 128.8C236.8 154.4 228 178.4 212.8 196.8z" />
    <glyph glyph-name="logo-dropbox"
      unicode="&#xEA2E;"
      horiz-adv-x="256" d="M75.30552 247.05408L0 197.88544L52.07032 156.18808L127.9988 203.07312zM0 114.48808L75.30552 65.31968L127.9988 109.30304L52.07032 156.18808zM127.9988 109.30304L180.69448 65.31968L256 114.48808L203.92968 156.18808zM256 197.88544L180.69448 247.05408L127.9988 203.07312L203.92968 156.18808zM128.15456 99.84064L75.30552 55.9868L52.6908 70.75152L52.6908 54.19904L128.15456 8.94592L203.61808 54.19904L203.61808 70.75152L181.00344 55.9868z" />
    <glyph glyph-name="logo-envato"
      unicode="&#xEA2F;"
      horiz-adv-x="256" d="M207.2 254.4C219.2 248.8 266.4 148 225.6 60.8C192.8 -9.6 111.2 -9.6 70.4 15.2C35.2 36 -19.2 103.2 40.8 184.8C43.2 188 49.6 187.2 48 178.4C47.2 172 38.4 124 55.2 103.2C62.4 92.8 64 100 64 100S62.4 169.6 116 222.4C150.4 253.6 197.6 259.2 207.2 254.4z" />
    <glyph glyph-name="logo-evernote"
      unicode="&#xEA30;"
      horiz-adv-x="256" d="M42.4 206.4C42.4 206.4 42.4 206.4 42.4 206.4H66.4C68 206.4 68.8 207.2 68.8 208.8C68.8 208.8 68.8 229.6 68.8 235.2V235.2C68.8 240 69.6 244 71.2 247.2L72 248.8C72 248.8 72 248.8 72 248.8L24.8 202.4C24.8 202.4 24.8 202.4 24.8 202.4C25.6 203.2 27.2 203.2 27.2 204C31.2 205.6 36.8 206.4 42.4 206.4zM229.6 211.2C228 221.6 221.6 226.4 216 228.8C210.4 231.2 198.4 232.8 183.2 235.2C171.2 236.8 156.8 236.8 148 236C147.2 243.2 141.6 249.6 136.8 252C121.6 257.6 99.2 256.8 93.6 255.2C88.8 253.6 84 251.2 80.8 247.2C77.6 244 76.8 240 76.8 235.2C76.8 232.8 76.8 225.6 76.8 220C76.8 214.4 76.8 208.8 76.8 208.8C76.8 203.2 72.8 199.2 67.2 199.2H43.2C38.4 199.2 34.4 198.4 31.2 196.8C28 196 26.4 194.4 24.8 192C21.6 187.2 20.8 182.4 20.8 176.8C20.8 176.8 20.8 172 21.6 164C22.4 157.6 29.6 111.2 36.8 96.8C39.2 91.2 41.6 88.8 46.4 86.4C58.4 81.6 84.8 76 96.8 74.4C109.6 72.8 116.8 69.6 121.6 79.2C121.6 79.2 122.4 81.6 124 84.8C128 96.8 128.8 108 128.8 116C128.8 116.8 129.6 116.8 129.6 116C129.6 110.4 128.8 91.2 143.2 85.6C148.8 83.2 160.8 81.6 173.6 80C184.8 78.4 192.8 74.4 192.8 45.6C192.8 28 188.8 25.6 170.4 25.6C155.2 25.6 148.8 24.8 148.8 37.6C148.8 47.2 158.4 46.4 165.6 46.4C168.8 46.4 166.4 48.8 166.4 55.2C166.4 61.6 170.4 64.8 166.4 64.8C141.6 65.6 126.4 64.8 126.4 33.6C126.4 4.8 137.6 0 172.8000000000001 0C200.8000000000001 0 210.4 0.8 222.4 36.8C224.8000000000001 44 230.4000000000001 65.6 233.6 101.6C236.8 124.8 232.8 193.6 229.6 211.2zM180.8 135.2C177.6 135.2 174.4 135.2 171.2 134.4C172 141.6 175.2 150.4 185.6 149.6C196.8 149.6 198.4 138.4 198.4 131.2C192.8 133.6 187.2 134.4 180.8 135.2z" />
    <glyph glyph-name="logo-facebook"
      unicode="&#xEA31;"
      horiz-adv-x="256" d="M245.6 256H10.4C4.8 256 0 251.2 0 245.6V11.2C0 4.8 4.8 0 10.4 0H136V96H104V136H136V168C136 200.8 156.8 217.6 186.4 217.6C200.8 217.6 212.8 216 216 216V181.6L195.2 181.6C179.2 181.6 175.2 173.6 175.2 162.4V136H215.2L207.2 96H175.2L176 0H244.8C250.4 0 255.2 4.8 255.2 10.4V245.6C256 251.2 251.2 256 245.6 256z" />
    <glyph glyph-name="logo-fb-simple"
      unicode="&#xEA32;"
      horiz-adv-x="256" d="M99.69744 8V112H64V160H99.69744V193.52016C99.69744 230.03384 122.81328 248 155.386 248C170.98864 248 184.3984 246.8384 188.30632 246.31912V208.16016L165.71536 208.14992C148.00056 208.14984 144 199.732 144 187.37944V160H192L176 112H144V8H99.69744z" />
    <glyph glyph-name="logo-feedly"
      unicode="&#xEA33;"
      horiz-adv-x="256" d="M241.6 139.2C212 168.8 183.2 197.6 153.6 227.2C149.6 231.2 145.6 236 140 238.4C134.4 240.8 128 241.6 121.6 240C116 238.4 111.2 236 108 232C74.4 199.2 41.6 166.4 8.8 133.6C4.8 129.6 2.4 124.8 0.8 120C-1.6 110.4 1.6 100 8.8 92.8C32 69.6 55.2 46.4 78.4 23.2C83.2 17.6 91.2 15.2 98.4 15.2C117.6 15.2 136 15.2 155.2 15.2C164 14.4 172 17.6 178.4 24C199.2 44.8 220.8 66.4 241.6 87.2000000000001C244.8 90.4 248.8 93.6000000000001 251.2 97.6000000000001C256 104.8 256.8 115.2000000000001 254.4 123.2000000000001C252 129.6 246.4 134.4 241.6 139.2zM76.8 101.6C73.6 97.6 67.2 98.4 62.4 99.2C58.4 102.4 54.4 106.4 50.4 111.2C48.8 113.6 51.2 116 52.8 117.6C74.4 139.2 96 160.8 117.6 182.4C120.8 185.6 123.2 188 126.4 190.4C129.6 192 131.2 188.8 133.6 187.2C137.6 183.2 142.4 179.2 145.6 174.4C147.2 172 145.6 169.6 144 168C121.6 146.4 99.2 124 76.8 101.6zM145.6 50.4C142.4 46.4 138.4 42.4 134.4 39.2C130.4 38.4 126.4 38.4 123.2 39.2C119.2 40.8 116.8 44.8 114.4 47.2C112 49.6 108.8 52 112 55.2C116.8 60 121.6 64.8 126.4 69.6C128 71.2 131.2 70.4 132.8 68.8C136.8 64.8 141.6 60 145.6 56C146.4 55.2 147.2 52.8 145.6 50.4zM144 108.8C132 96.8 119.2 84 107.2 72C104 68 97.6 68.8 92.8 69.6C88 72.8 84.8 76.8 80.8 80.8C78.4 83.2 80.8 86.4 82.4 88C94.4 100 107.2 112.8 119.2 124.8C121.6 127.2 123.2 129.6 126.4 131.2C128.8 132 131.2 129.6 132.8 128C136.8 124 141.6 120 145.6 115.2C147.2 112.8 145.6 110.4 144 108.8z" />
    <glyph glyph-name="logo-flickr"
      unicode="&#xEA34;"
      horiz-adv-x="256" d="M245.6 256H10.4C4.8 256 0 251.2 0 245.6V11.2C0 4.8 4.8 0 10.4 0H244.8C250.4 0 255.2 4.8 255.2 10.4V245.6C256 251.2 251.2 256 245.6 256zM74.4 85.6C51.2 85.6 32 104.8 32 128C32 151.2 51.2 170.4 74.4 170.4S116.8 151.2 116.8 128C117.6 104.8 98.4 85.6 74.4 85.6zM181.6 85.6C158.4 85.6 139.2 104.8 139.2 128C139.2 151.2 158.4 170.4 181.6 170.4S224 151.2 224 128C224 104.8 204.8 85.6 181.6 85.6z" />
    <glyph glyph-name="logo-github"
      unicode="&#xEA35;"
      horiz-adv-x="256" d="M128 252.8C57.6 252.8 0 195.2 0 124.8C0 68 36.8 20 87.2 3.2C93.6 2.4 96 5.6 96 9.6C96 12.8 96 20.8 96 31.2C60 23.2 52.8 48 52.8 48C47.2 62.4 38.4 66.4 38.4 66.4C26.4 74.4 39.2 74.4 39.2 74.4C52 73.6 59.2 61.6 59.2 61.6C70.4 42.4 88.8 48 96.8 51.2C97.6 59.2 101.6 64.8 104.8 68C76 71.2 46.4 82.4 46.4 131.2000000000001C46.4 144.8 51.2 156.8000000000001 59.2 165.6C57.6 168.8 53.6 181.6 60.8 199.2C60.8 199.2 71.2 202.4 96 186.4C106.4 189.6 116.8 190.4 128 190.4C139.2 190.4 149.6 188.8 160 186.4C184.8 203.2 195.2 200 195.2 200C202.4 182.4 197.6 169.6 196.8 166.4C204.8 157.6 209.6 146.4 209.6 132C209.6 83.2 180 72 151.2 68.8C156 64.8 160 56.8 160 44.8C160 28 160 13.6 160 9.6C160 6.4 162.4 2.4 168.8 3.2C219.2 20 256 68 256 124.8C256 195.2 198.4 252.8 128 252.8z" />
    <glyph glyph-name="logo-google-plus"
      unicode="&#xEA36;"
      horiz-adv-x="256" d="M256 143.99952H232V167.99952H208V143.99952H184V119.99952H208V95.99952H232V119.99952H256V143.99952zM88 143.99952V114.39952H136C134.4 101.59952 120.8 76.79952 87.2 76.79952C57.6 76.79952 33.6 101.59952 33.6 131.19952S57.6 185.59952 87.2 185.59952C104 185.59952 115.2 178.39952 121.6 171.99952L144.8 194.39952C129.6 208.79952 110.4 216.79952 86.4 216.79952C38.4 218.39952 0 179.19952 0 131.19952S38.4 44.79952 86.4 44.79952C146.4 44.79952 176.8 94.39952 168 143.99952L88 143.99952L88 143.99952z" />
    <glyph glyph-name="logo-instagram"
      unicode="&#xEA37;"
      horiz-adv-x="256" d="M128 232.936C162.176 232.936 166.224 232.808 179.72 232.192C194.288 231.528 207.808 228.608 218.208 218.208C228.608 207.808 231.528 194.288 232.192 179.72C232.808 166.224 232.936 162.176 232.936 128S232.808 89.776 232.192 76.28C231.528 61.712 228.608 48.192 218.208 37.792C207.808 27.392 194.288 24.472 179.72 23.808C166.224 23.192 162.176 23.064 128 23.064S89.776 23.192 76.28 23.808C61.712 24.472 48.192 27.392 37.792 37.792C27.392 48.192 24.472 61.712 23.808 76.28C23.192 89.776 23.064 93.824 23.064 128S23.192 166.224 23.808 179.72C24.472 194.288 27.392 207.808 37.792 218.208C48.192 228.608 61.712 231.528 76.28 232.192C89.776 232.808 93.824 232.936 128 232.936M128 256C93.24 256 88.88 255.856 75.224 255.232C54.424 254.28 36.152 249.184 21.48 234.52C6.816 219.856 1.72 201.584 0.768 180.776C0.144 167.12 0 162.76 0 128C0 93.24 0.144 88.88 0.768 75.224C1.72 54.424 6.816 36.152 21.48 21.48C36.144 6.816 54.416 1.72 75.224 0.768C88.88 0.144 93.24 0 128 0S167.12 0.144 180.776 0.768C201.576 1.72 219.848 6.816 234.52 21.48C249.184 36.144 254.28 54.416 255.232 75.224C255.856 88.88 256 93.24 256 128S255.856 167.12 255.232 180.776C254.28 201.576 249.184 219.848 234.52 234.52C219.856 249.184 201.584 254.28 180.776 255.232C167.12 255.856 162.76 256 128 256L128 256zM128 193.728C91.696 193.728 62.272 164.296 62.272 128C62.272 91.696 91.704 62.272 128 62.272S193.728 91.704 193.728 128C193.728 164.304 164.304 193.728 128 193.728zM128 85.336C104.432 85.336 85.336 104.44 85.336 128C85.336 151.568 104.44 170.664 128 170.664C151.568 170.664 170.664 151.56 170.664 128C170.664 104.432 151.568 85.336 128 85.336zM180.968 196.328A15.36 15.36 0 0 1 211.688 196.328A15.36 15.36 0 0 1 180.968 196.328" />
    <glyph glyph-name="logo-lastfm"
      unicode="&#xEA38;"
      horiz-adv-x="256" d="M112.8 72.8L103.2 98.4C103.2 98.4 88 81.6 64.8 81.6C44.8 81.6 30.4 99.2 30.4 127.2C30.4 163.2 48.8 176 66.4 176C92 176 100.8 159.2 107.2 137.6L116.8 108C126.4 79.2 144 56.8 194.4 56.8C230.4 56.8 255.2 68 255.2 97.6C255.2 121.6 241.6 133.6 216.8 139.2L198.4 143.2C185.6 146.4 181.6 151.2 181.6 160C181.6 169.6 189.6 176 202.4 176C216.8 176 224 170.4 225.6 158.4L255.2 161.6C252.8 188 234.4 199.2 204.8 199.2C178.4 199.2 152.8 189.6 152.8 157.6C152.8 137.6 162.4 124.8 187.2 119.2L207.2 114.4C222.4 111.2 227.2 104.8 227.2 96C227.2 84.8 216.8 80.8 196.8 80.8C167.2 80.8 155.2 96 148 117.6L138.4 147.2C126.4 185.6 106.4 199.2 67.2 199.2C23.2 199.2 0 172 0 125.6C0 80.8 23.2 56.8 64 56.8C96.8 56.8 112.8 72.8 112.8 72.8L112.8 72.8z" />
    <glyph glyph-name="logo-linkedin"
      unicode="&#xEA39;"
      horiz-adv-x="256" d="M245.6 256H10.4C4.8 256 0 251.2 0 245.6V11.2C0 4.8 4.8 0 10.4 0H244.8C250.4 0 255.2 4.8 255.2 10.4V245.6C256 251.2 251.2 256 245.6 256zM76 37.6H37.6V160H76V37.6zM56.8 176.8C44.8 176.8 34.4 186.4 34.4 199.2C34.4 211.2 44 221.6 56.8 221.6C68.8 221.6 79.2 212 79.2 199.2C79.2 186.4 68.8 176.8 56.8 176.8zM218.4 37.6H180.8V96.8C180.8 111.2 180.8 128.8 160.8 128.8C140.8 128.8 138.4 113.6 138.4 97.6V36.8H100.8V160H136V143.2H136.8C141.6 152.8 154.4 163.2 172.8 163.2C211.2 163.2 218.4 137.6 218.4 104.8V37.6z" />
    <glyph glyph-name="logo-medium"
      unicode="&#xEA3A;"
      horiz-adv-x="256" d="M248 256H8A8 8 0 0 1 0 248V8A8 8 0 0 1 8 0H248A8 8 0 0 1 256 8V248A8 8 0 0 1 248 256zM212.68 195.344L198.944 182.184A4 4 0 0 1 197.416 178.328V81.6A4 4 0 0 1 198.944 77.744L212.352 64.584V61.696H144.912V64.584L158.8 78.08C160.168 79.448 160.168 79.848 160.168 81.936V160.112L121.552 62.024H116.336L71.368 160.112V94.4A9.072 9.072 0 0 1 73.856 86.856L91.92 64.944V62.056H40.72V64.944L58.784 86.856A8.744 8.744 0 0 1 61.112 94.4V170.4A6.656000000000001 6.656000000000001 0 0 1 58.944 176L42.864 195.344V198.232H92.72L131.256 113.712L165.144 198.232H212.672z" />
    <glyph glyph-name="logo-meetup"
      unicode="&#xEA3B;"
      horiz-adv-x="256" d="M246.584 125.336C255.6 134.48 258.496 149.104 253.728 160.92C249.928 170.336 243.16 176.632 233.728 180.12C232.28 180.656 232 181.44 231.952 182.8C231.84 186.608 231.808 190.432 231.352 194.2C230.12 204.464 226.184 213.72 219.968 221.92C209.984 235.08 196.784 243.0080000000001 180.392 245.5120000000001C171.184 246.92 162.112 246.32 153.256 243.504C151.216 242.856 149.704 243.08 147.912 244.128C137.088 250.4640000000001 125.3600000000001 253.576 114.376 253.648C102.088 253.616 91.864 251.2800000000001 82.304 246.408C67.216 238.728 56.312 227.056 49.768 211.408C49.096 209.792 48.088 209.0560000000001 46.424 208.784C36.344 207.112 27.936 202.384 21.008 194.872C7.904 180.648 5.288 158.472 14.896 141.64C15.832 140.008 15.664 139.048 14.368 137.72C5.848 128.976 0.936 118.544 0.128 106.288C-0.64 94.784 2.08 84.2 8.696 74.712C16.296 63.808 26.728 57.208 39.728 54.608C40.992 54.36 41.512 53.704 41.6 52.4C41.744 50.184 41.944 47.952 42.368 45.776C44.808 33.288 50.728 22.776 60.544 14.624C73.824 3.592 90.72 0.28 105.976 3.576C113.264 5.152 120.016 8.04 125.904 12.712C126.928 13.52 127.664 13.696 128.72 12.832C134.504 8.096 141.056 5.096 148.512 4.104C162.976 2.184 174.912 6.896 184.424 17.816C187.888 21.792 190.248 26.44 191.768 31.504C192.072 32.52 192.344 33.608 193.816 33.624C204.304 33.784 210.504 35.312 215.832 37.512C235.952 45.84 248.192 60.712 252.016 82.216C254.352 95.376 252.112 107.904 245.784 119.688C243.84 123.304 243.68 122.4 246.584 125.336zM196.288 68.168C192.88 67.112 187.936 66.408 185.648 66.456C178.464 66.528 171.368 67.48 164.824 70.464C156.128 74.432 150.872 81.384 148.752 90.752C147.12 97.9680000000001 149.288 104.4560000000001 152.296 110.8C157.904 122.632 163.6 134.4160000000001 169.184 146.256C171.28 150.704 175.5200000000001 158.9200000000001 171.176 161.2400000000001C166.104 163.9520000000001 162.56 158.096 159.856 152.8320000000001C153.2 139.888 146.656 126.88 140.064 113.9040000000001C137.016 107.896 134.064 101.8400000000001 130.832 95.9360000000001C127.856 90.4880000000001 123.36 87.0480000000001 116.832 87.4240000000001C106.904 88.0000000000001 104.12 94.5280000000001 107.952 104.1200000000001C112.8 116.2720000000001 117.68 128.4160000000001 122.472 140.5920000000001C123.744 143.8160000000001 125.152 147.0640000000001 124.512 150.7120000000001C123.952 153.8800000000001 122.216 155.9280000000001 119.472 156.4720000000001C117.176 156.9280000000001 113.632 155.2160000000001 112.488 152.7360000000001C110.6 148.6400000000001 108.904 144.4560000000001 107.24 140.2720000000001C100.008 122.1600000000001 92.888 104.0000000000001 85.576 85.9200000000001C83.56 80.9360000000001 80.528 76.3520000000001 75.208 74.5120000000001C60.368 69.4000000000001 42.648 78.9200000000001 44.2 96.7920000000001C44.68 102.3760000000001 57.176 141.6000000000001 57.984 144.1120000000001C61.672 155.6640000000001 65.224 167.2960000000001 70.664 178.1920000000001C74.392 185.6560000000001 80.848 189.8160000000001 88.64 192.1840000000001C95.104 194.1520000000001 101.04 192.6560000000001 106.816 189.6320000000001C109.856 188.0400000000001 113.024 186.7040000000001 116.088 185.1680000000001C118.352 184.0320000000001 120.6400000000001 184.0560000000001 122.6160000000001 185.4480000000001C125.4080000000001 187.4240000000001 128.1120000000001 189.5680000000001 130.6000000000001 191.9120000000001C136.1360000000001 197.1200000000001 144.6320000000001 197.9920000000001 149.9040000000001 195.0560000000001C152.8480000000001 193.4160000000001 155.2640000000001 190.8240000000001 157.8640000000001 188.6000000000001C160.4160000000001 186.4160000000001 161.5200000000001 186.1520000000001 164.3120000000001 187.9760000000001C169.5840000000001 191.4240000000001 175.4480000000001 191.1920000000001 181.2960000000001 190.8480000000001C196.6000000000001 189.9440000000001 201.4240000000001 175.6800000000001 199.0800000000001 165.3520000000001C196.7200000000001 154.9760000000001 191.9840000000001 145.5280000000001 187.8800000000001 135.8240000000001C184.4640000000001 127.7520000000001 181.0000000000001 119.6960000000001 177.8320000000001 111.5280000000001C175.9680000000001 106.7360000000001 174.7360000000001 101.7040000000001 174.6880000000001 96.4880000000001C174.6320000000001 90.9280000000001 177.1920000000001 87.8560000000001 182.6960000000001 86.8160000000001C189.0480000000001 85.6240000000001 192.6160000000001 85.5360000000001 196.6400000000001 83.8960000000001C200.2800000000001 82.4160000000001 201.7520000000001 79.4400000000001 201.6880000000001 75.7040000000001C201.608 72.04 199.784 69.248 196.288 68.168z" />
    <glyph glyph-name="logo-messenger"
      unicode="&#xEA3C;"
      horiz-adv-x="256" d="M128 256C58.016 256 1.288 202.952 1.288 137.512C1.288 100.288 19.648 67.072 48.36 45.344V0L91.6 23.984C103.128 20.76 115.344 19.024 127.992 19.024C197.976 19.024 254.704 72.072 254.704 137.512S197.984 256 128 256zM141.344 97.112L108.576 131.16L45.464 96.256L114.656 169.688L147.432 135.64L210.544 170.544L141.344 97.112z" />
    <glyph glyph-name="logo-myspace"
      unicode="&#xEA3D;"
      horiz-adv-x="256" d="M170.50984 165.59A40.72496 40.58128 0 0 1 251.95976 165.59A40.72496 40.58128 0 0 1 170.50984 165.59M82.81248 154.01816A36.6612 36.52688 0 0 1 156.13488 154.01816A36.6612 36.52688 0 0 1 82.81248 154.01816M3.26352 143.59504A32.9976 32.86616 0 0 1 69.25872 143.59504A32.9976 32.86616 0 0 1 3.26352 143.59504M36.2624 103.22368C15.33976 103.22368 0 84.85872 0 65.88632V53.11624L0 53.11624C0 51.3112 1.47736 49.82872 3.29496 49.82872H4.46488H68.0548H69.21984C71.0436 49.82872 72.5212 51.3112 72.5212 53.11624L72.5212 53.11624V65.88632C72.5212 84.85872 57.18472 103.22368 36.2624 103.22368zM119.4724 109.16368C96.2248 109.16368 79.17752 88.7564 79.17752 67.67376V53.48368L79.17752 53.48368C79.17752 51.4764 80.82 49.8288 82.83984 49.8288H84.13984H154.79992H156.09504C158.12488 49.8288 159.76504 51.4764 159.76504 53.48368L159.76504 53.48368V67.67376C159.76496 88.75632 142.72 109.16368 119.4724 109.16368zM211.22992 115.75384C185.39976 115.75384 166.45984 93.0812 166.45984 69.65384V53.88888L166.45984 53.88888C166.45984 51.65888 168.28488 49.82872 170.52976 49.82872H171.97488H250.48496H251.91984C254.17496 49.82872 256 51.65888 256 53.88888L256 53.88888V69.65384C256 93.0812 237.0624 115.75384 211.22992 115.75384z" />
    <glyph glyph-name="logo-paypal"
      unicode="&#xEA3E;"
      horiz-adv-x="256" d="M215.09072 191.27712C215.07512 191.17168 215.07128 191.14744 215.0432 190.95904C215.04312 190.95904 215.06608 191.11248 215.09072 191.27712zM215.09072 191.27712C215.16376 191.766 215.13392 191.5676 215.09072 191.27712L215.09072 191.27712zM204.25144 236.69696C192.39744 250.2076 170.96968 256 143.558 256H64.00064C58.3924 256 53.62648 251.92128 52.74864 246.3908L19.62248 36.29816C18.96424 32.15592 22.17208 28.40264 26.37088 28.40264H75.48648L87.822 106.64312L87.43952 104.19296C88.31776 109.72344 93.04776 113.80216 98.64912 113.80216H121.98896C167.83968 113.80216 203.74152 132.42576 214.22888 186.29992C214.54008 187.89304 215.04312 190.95904 215.04312 190.95904C218.0176 210.8944 215.02192 224.42496 204.25144 236.69696zM227.47504 180.75688C216.07096 127.71688 179.69584 99.64232 121.98936 99.64232H101.05688L85.44744 0H119.39832C124.29864 0 128.46944 3.56872 129.234 8.40552L129.63768 10.51552L137.44112 59.9708L137.94424 62.70408C138.7088 67.54088 142.8796 71.1096 147.77992 71.1096H153.976C194.084 71.1096 225.4892 87.40368 234.66656 134.52896C238.34408 153.43472 236.58152 169.29656 227.47504 180.75688z" />
    <glyph glyph-name="logo-pinterest"
      unicode="&#xEA3F;"
      horiz-adv-x="256" d="M128 256C57.6 256 0 198.4 0 128C0 73.6 33.6 27.2 81.6 8.8C80.8 19.2 79.2 34.4 82.4 45.6C84.8 55.2 97.6 109.6 97.6 109.6S93.6 117.6 93.6 128.8C93.6 146.4 104 160 116.8 160C128 160 132.8 152 132.8 141.6C132.8 130.4 125.6 114.4 122.4 99.2C119.2 86.4 128.8 76 141.6 76C164 76 181.6 100 181.6 134.4C181.6 164.8000000000001 159.2 186.4 128 186.4C91.2 186.4 70.4 159.2000000000001 70.4 131.2000000000001C70.4 120 74.4 108.8 80 101.6C80.8 100 80.8 99.2 80.8 97.6C80 93.6 77.6 84.8 77.6 83.2C76 80.8 74.4 80 72 81.6C56 88.8 46.4 112.8 46.4 131.2C46.4 171.2 76 208.8 131.2 208.8C176 208.8 210.4 176.8 210.4 135.2C210.4 91.2 182.4 55.2 144 55.2C131.2 55.2 119.2 61.6 114.4 69.6C114.4 69.6 108 44.8 106.4 39.2C103.2 28 96 14.4 90.4 5.6C102.4 1.6 115.2 0 128 0C198.4 0 256 57.6 256 128C256 198.4 198.4 256 128 256z" />
    <glyph glyph-name="logo-product-hunt"
      unicode="&#xEA40;"
      horiz-adv-x="256" d="M144.8 166.4L144.8 166.4L108.8 166.4V128H144.8V128C155.2 128 164 136.8 164 147.2C164 157.6 156 166.4 144.8 166.4zM128 256C57.6 256 0 198.4 0 128S57.6 0 128 0S256 57.6 256 128S198.4 256 128 256zM144.8 102.4L144.8 102.4L108.8 102.4V64H83.2V192L144.8 192V192C169.6 192 189.6 172 189.6 147.2C189.6 122.4 169.6 102.4 144.8 102.4z" />
    <glyph glyph-name="logo-qq"
      unicode="&#xEA41;"
      horiz-adv-x="256" d="M64.896 19.752C55.88 17.16 49.752 12.952 48.904 8.792C47.8 3.408 68.808 -1.976 105.672 0.704C88.896 3.496 75.256 9.864 64.896 19.752zM128 256C83.592 256 47.592 220 47.592 175.592V154.184L50.776 152.68C51.016 152.568 76.4 141 128 141H128H128C179.6 141 204.984 152.568 205.224 152.68L208.408 154.184V175.592C208.408 220 172.408 256 128 256zM148.584 224.208C156.064 224.208 162.12 215.04 162.12 203.736C162.12 192.424 156.056 183.264 148.584 183.264C141.104 183.264 135.048 192.432 135.048 203.736C135.048 215.048 141.112 224.208 148.584 224.208zM107.416 224.208C114.896 224.208 120.952 215.04 120.952 203.736C120.952 192.424 114.888 183.264 107.416 183.264C99.936 183.264 93.88 192.432 93.88 203.736C93.872 215.048 99.936 224.208 107.416 224.208zM128 151.288C94.712 151.288 79.008 164.192 79.76 167.744C80.504 171.296 105 177.464 128 177.464S175.496 171.296 176.24 167.744C176.992 164.184 161.288 151.288 128 151.288zM191.104 19.752C200.12 17.16 206.248 12.952 207.096 8.792C208.2 3.408 187.192 -1.976 150.328 0.704C167.104 3.496 180.744 9.864 191.104 19.752zM231.496 84.904C229.848 92.272 225.656 103.864 221.168 115.232C212.96 111.272 201.8 108.44 190.04 106.416C190.112 105.616 190.224 104.816 190.352 104.016V73.48C190.352 39.048 162.44 11.128 128 11.128S65.648 39.04 65.648 73.48V104.016C65.776 104.816 65.888 105.616 65.96 106.416C54.2 108.44 43.032 111.264 34.832 115.232C30.344 103.864 26.152 92.272 24.504 84.904C20.296 66.112 20.112 49.192 22.544 48.064C24.36 47.224 34.984 56.656 47.496 72.576C48.072 54.24 56.048 3.56 126.512 3.56C127.016 3.56 127.504 3.576 128.0080000000001 3.576C128.512 3.568 129 3.56 129.5040000000001 3.56C199.9680000000001 3.56 207.936 54.248 208.5200000000001 72.576C221.0400000000001 56.648 231.6560000000001 47.224 233.4720000000001 48.064C235.896 49.184 235.704 66.112 231.496 84.904zM219.504 119.4L207.136 148.624C207.136 148.624 181.48 136.512 128 136.512S48.864 148.624 48.864 148.624L36.496 119.4C46.984 114.256 62.952 111.064 78.64 109.08V72.184H112.112V106.304C121.648 105.864 128 105.848 128 105.848S192.272 106.032 219.504 119.4z" />
    <glyph glyph-name="logo-reddit"
      unicode="&#xEA42;"
      horiz-adv-x="256" d="M256 130.4C256 147.2 242.4 160.8 225.6 160.8C218.4 160.8 211.2 158.4 206.4 153.6C188 165.6 164 172.8 138.4 173.6L152 216L188 208C188.8 194.4 200 184 213.6 184C228 184 239.2 195.2 239.2 209.6C239.2 224 228 235.2 213.6 235.2C204 235.2 195.2 229.6 190.4 221.6L148 232C144.8 232.8 140.8 230.4 140 227.2L123.2 175.2C96 174.4 69.6 167.2 49.6 155.2C44 159.2 37.6 161.6 30.4 161.6C13.6 161.6 0 148 0 131.2C0 120.8 5.6 111.2 13.6 105.6C13.6 103.2 12.8 100.8 12.8 98.4C12.8 76.8 24.8 57.6 47.2 43.2C68.8 28.8 96.8 21.6000000000001 127.2 21.6000000000001C157.6 21.6000000000001 185.6 29.6000000000001 207.2 43.2C229.6 57.6000000000001 241.6 77.6000000000001 241.6 98.4C241.6 100.8 241.6 103.2000000000001 240.8 104.8C250.4 109.6 256 119.2 256 130.4zM213.6 221.6C220 221.6 225.6 216 225.6 209.6C225.6 203.2 220 197.6 213.6 197.6S201.6 203.2 201.6 209.6C201.6 216 207.2 221.6 213.6 221.6zM72.8 111.2C72.8 120.8 80.8 128.8 90.4 128.8C100 128.8 108 120.8 108 111.2S100 93.6 90.4 93.6C80.8 93.6 72.8 101.6 72.8 111.2zM170.4 60C161.6 51.2 148 46.4 128 46.4C128 46.4 128 46.4 128 46.4C128 46.4 128 46.4 128 46.4C108.8 46.4 95.2 50.4 85.6 60C83.2 62.4 83.2 67.2 85.6 69.6C88 72 92.8 72 95.2 69.6C101.6 63.2 112 60.8 127.2 60.8C127.2 60.8 127.2 60.8 127.2 60.8C127.2 60.8 127.2 60.8 127.2 60.8C142.4 60.8 152.8 64 159.2 69.6C161.6 72 166.4 72 168.8 69.6C172.8 67.2 172.8 63.2 170.4 60zM166.4 93.6C156.8 93.6 148.8 101.6 148.8 111.2S156.8 128.8 166.4 128.8C176 128.8 184 120.8 184 111.2S176 93.6 166.4 93.6z" />
    <glyph glyph-name="logo-rss"
      unicode="&#xEA43;"
      horiz-adv-x="256" d="M10.66664 53.33336A32 32 0 0 1 74.66664 53.33336A32 32 0 0 1 10.66664 53.33336M234.66664 21.33336H192C192 121.32288 110.65624 202.66664 10.66664 202.66664V245.33336C134.17704 245.33336 234.66664 144.84896 234.66664 21.33336zM160 21.33336H117.33336C117.33336 80.15104 69.4792 128 10.66664 128V170.66664C93.0104 170.66664 160 103.67704 160 21.33336z" />
    <glyph glyph-name="logo-shopify"
      unicode="&#xEA44;"
      horiz-adv-x="256" d="M212.8 206.4C212.8 208 211.2 208.8 210.4 208.8C209.6 208.8 189.6 210.4 189.6 210.4S176 223.2 174.4 224.8C172.8 226.4 169.6 225.6 168.8 225.6C168.8 225.6 165.6 224.8 160.8 223.2C156.8 236 148.8 248 134.4 248C134.4 248 133.6 248 133.6 248C129.6 253.6 124.8 256 120 256C87.2 256 71.2 214.4 66.4 193.6C53.6 189.6 44 187.2 43.2 186.4C36 184 36 184 35.2 177.6C34.4 172.8 16 27.2 16 27.2L161.6 0L240.8 16.8C240.8 16.8 212.8 204.8 212.8 206.4zM132 216C132 215.2 132 215.2 132 214.4C124 212 115.2 209.6 106.4 206.4C111.2 225.6 120.8 234.4 128.8 237.6C131.2 232.8 132 225.6 132 216zM119.2 247.2C120.8 247.2 122.4 246.4 123.2 245.6C112.8 240.8 101.6 228 96.8 203.2C89.6 200.8 83.2 199.2 76.8 196.8C82.4 216 95.2 247.2 119.2 247.2zM124.8 135.2C124.8 135.2 116 140 105.6 140C90.4 140 89.6 130.4 89.6 128C89.6 114.4 124 109.6 124 78.4C124 53.6 108.8 38.4 88 38.4C63.2 38.4 50.4 53.6 50.4 53.6L56.8 76C56.8 76 69.6 64.8 80.8 64.8C88 64.8 91.2 70.4 91.2 74.4C91.2 92 63.2 92.8 63.2 120.8C63.2 144.8 80 168 115.2 168C128.8 168 135.2 164 135.2 164L124.8 135.2zM140.8 216.8C140.8 217.6 140.8 218.4 140.8 219.2C140.8 227.2 140 233.6 137.6 239.2C144.8 238.4 149.6 229.6 152.8 220.8C149.6 219.2 145.6 218.4 140.8 216.8z" />
    <glyph glyph-name="logo-skype"
      unicode="&#xEA45;"
      horiz-adv-x="256" d="M247.2 106.4C247.2 105.6 247.2 105.6 247.2 104.8L246.4 107.2C246.4 107.2 246.4 107.2 247.2 106.4C248.8 113.6 249.6 120.8 249.6 128C249.6 144 246.4 160 240 175.2C233.6 189.6 225.6 202.4 214.4 213.6C203.2 224.8 190.4 233.6 176 239.2C160 246.4 144 249.6 128 249.6C120 249.6 112.8 248.8 104.8 247.2C104.8 247.2 104.8 247.2 104.8 247.2C105.6 247.2 105.6 246.4 106.4 246.4L104 246.4C104.8 246.4 104.8 246.4 105.6 246.4C95.2 252 84 254.4 72 254.4C52.8 256 34.4 248 20.8 234.4C7.2 221.6 0 203.2 0 184C0 172 3.2 160 8.8 149.6C8.8 150.4 8.8 150.4 8.8 151.2L9.6 148.8C9.6 148.8 8.8 149.6 8.8 150.4C8 143.2 7.2 136.8 7.2 129.6C7.2 113.6 10.4 97.6 16.8 82.4C23.2 68 31.2 55.2 42.4 44C53.6 32.8 66.4 24 80.8 18.4C96 11.2 112 8 128 8C135.2 8 142.4 8.8 148.8 9.6C148 9.6 148 10.4 147.2 10.4L149.6 9.6C148.8 9.6 148.8 9.6 148 9.6C158.4 3.2 171.2 0 183.2000000000001 0C202.4 0 220.0000000000001 7.2 233.6000000000001 20.8C247.2000000000001 34.4 254.4000000000001 52 254.4000000000001 71.2C256 84 252.8 96 247.2 106.4zM128.8 54.4C85.6 54.4 66.4 75.2 66.4 91.2C66.4 99.2 72 104.8 80.8 104.8C99.2 104.8 94.4 78.4 128.8 78.4C146.4 78.4 156 88 156 97.6C156 103.2 152.8 109.6 141.6 112.8L103.2 122.4C72.8 130.4 67.2 146.4 67.2 162.4C67.2 195.1999999999999 97.6 207.1999999999999 126.4 207.1999999999999C152.8 207.1999999999999 184 192.8 184 172.8C184 164.8 176.8 160 168.8 160C152.8 160 156 181.6 124.8 181.6C108.8 181.6 100.8 174.4 100.8 164C100.8 153.6 112.8 150.4 124 148L152 141.6C183.2 134.4 191.2 116.8 191.2 99.2C189.6 74.4 169.6 54.4 128.8 54.4z" />
    <glyph glyph-name="logo-slack"
      unicode="&#xEA46;"
      horiz-adv-x="256" d="M96.7093333333333 245.3333333333334A23.46666666666667 23.46666666666667 0 1 1 96.7093333333333 198.4H120.176V221.8666666666667A23.46666666666667 23.46666666666667 0 0 1 96.7093333333333 245.3333333333334M96.7093333333333 182.7573333333334H34.1333333333333A23.46666666666667 23.46666666666667 0 1 1 34.1333333333333 135.824H96.7146666666667A23.46666666666667 23.46666666666667 0 0 1 96.7146666666667 182.7573333333334M245.3333333333333 159.2853333333334A23.46666666666667 23.46666666666667 0 1 1 198.4 159.2853333333334V135.8186666666667H221.8666666666667A23.46666666666667 23.46666666666667 0 0 1 245.3333333333333 159.2853333333334M182.7573333333334 159.2853333333334V221.8666666666667A23.46666666666667 23.46666666666667 0 1 1 135.824 221.8666666666667V159.2906666666667A23.46666666666667 23.46666666666667 0 1 1 182.7573333333334 159.2906666666667M159.2853333333333 10.6666666666667A23.46666666666667 23.46666666666667 0 1 1 159.2853333333333 57.6H135.8186666666667V34.1333333333334A23.46666666666667 23.46666666666667 0 0 1 159.2853333333333 10.6666666666667M159.2853333333333 73.2426666666667H221.8666666666667A23.46666666666667 23.46666666666667 0 1 1 221.8666666666667 120.176H159.2853333333333A23.46666666666667 23.46666666666667 0 0 1 159.2853333333333 73.2426666666667H159.2853333333333M10.6666666666667 96.7146666666667A23.46666666666667 23.46666666666667 0 0 1 34.1333333333333 73.248H34.1333333333333A23.46666666666667 23.46666666666667 0 0 1 57.6 96.7146666666667V120.1813333333334H34.1333333333333A23.46666666666667 23.46666666666667 0 0 1 10.6666666666667 96.7146666666667M73.2426666666667 96.7146666666667V34.1333333333333A23.46666666666667 23.46666666666667 0 1 1 120.176 34.1333333333333V96.7146666666667A23.46666666666667 23.46666666666667 0 0 1 96.7093333333333 120.1813333333334H96.7093333333333A23.46666666666667 23.46666666666667 0 0 1 73.2426666666667 96.7146666666667" />
    <glyph glyph-name="logo-soundcloud"
      unicode="&#xEA47;"
      horiz-adv-x="256" d="M4.81232 124.75424C4.72112 125.38712 4.26776 125.82336 3.70904 125.82336C3.14744 125.82336 2.68272 125.37296 2.60576 124.75424L0 100.94632L2.60576 77.66584C2.67992 77.04152 3.14456 76.59104 3.70904 76.59104C4.26496 76.59104 4.71824 77.03008 4.80952 77.66016L7.77448 100.94632L4.81232 124.75424zM45.8768 146.7148C44.80768 146.7148 43.92392 145.8396 43.87264 144.72776L41.79712 100.9264L43.87256 72.61976C43.92672 71.5136 44.80768 70.6412 45.87672 70.6412C46.94008 70.6412 47.82104 71.5164 47.88376 72.62544V72.61688L50.23008 100.9264L47.88376 144.72776C47.82112 145.83952 46.94016 146.7148 45.8768 146.7148zM24.62328 131.49096C23.80224 131.49096 23.13224 130.83528 23.06672 129.96L20.72896 100.93776L23.06672 72.8592C23.12944 71.98968 23.80224 71.334 24.62328 71.334C25.43576 71.334 26.10576 71.98968 26.17704 72.8592L28.83408 100.93776L26.17704 129.96568C26.10576 130.8352 25.43576 131.49096 24.62328 131.49096zM67.47528 70.64408C68.80096 70.64408 69.87856 71.71312 69.9328 73.0816L71.96832 100.91216L69.9356 159.22744C69.88144 160.59584 68.80376 161.66496 67.47808 161.66496C66.14104 161.66496 65.06048 160.59304 65.01776 159.22456L63.21312 100.91496L65.01776 73.07304C65.06056 71.716 66.14104 70.64408 67.47528 70.64408zM111.6928 70.51288C113.51736 70.51288 115.02264 72.01536 115.05688 73.86272V73.8428V73.86272L116.47664 100.89504L115.05688 168.24488C115.02552 170.08944 113.51736 171.59472 111.6928 171.59472C109.86536 171.59472 108.35728 170.09232 108.32872 168.24208L107.06008 100.91792C107.06008 100.8752 108.32872 73.84568 108.32872 73.84568C108.35728 72.01536 109.86824 70.51288 111.6928 70.51288zM89.41584 70.6184C91.00376 70.6184 92.28384 71.89272 92.32664 73.51776V73.49784L94.05432 100.90648L92.32384 159.64368C92.28104 161.26872 91.00104 162.54024 89.41304 162.54024C87.81368 162.54024 86.5336 161.26872 86.49944 159.64368L84.9628 100.9036L86.50232 73.50072C86.5364 71.89272 87.81648 70.6184 89.41584 70.6184zM223.39704 135.65608C218.92968 135.65608 214.6676 134.75232 210.78464 133.12448C208.19032 162.5116 183.54704 185.56408 153.48712 185.56408C146.13176 185.56408 138.96176 184.11584 132.62992 181.66688C130.1696 180.71464 129.51384 179.734 129.49104 177.8324V74.34448C129.51672 72.34888 131.06472 70.6868 133.01192 70.49008C133.09456 70.48152 222.81264 70.43592 223.39416 70.43592C241.40048 70.43592 256 85.03544 256 103.04456S241.40336 135.65608 223.39704 135.65608z" />
    <glyph glyph-name="logo-spotify"
      unicode="&#xEA48;"
      horiz-adv-x="256" d="M128 256C57.6 256 0 198.4 0 128S57.6 0 128 0S256 57.6 256 128S199.2 256 128 256zM187.2 71.2C184.8 67.2 180 66.4 176 68.8C145.6 87.2 108 91.2 63.2 80.8C58.4 79.2 55.2 82.4 53.6 86.4C52 91.2 55.2 94.4 59.2 96C108 107.2 150.4 102.4 183.2 81.6C188 80 188.8 75.2 187.2 71.2zM202.4 106.4C199.2 101.6 193.6 100 188.8 103.2C154.4 124 101.6 130.4 61.6 117.6C56.8 116 50.4 119.2 49.6 124C48 129.6 50.4 135.2 56 136C102.4 150.4 160 143.2 200 118.4C203.2 116.8 205.6 110.4 202.4 106.4zM203.2 142.4C162.4 166.4 93.6 169.6 54.4 156.8C48 155.2 41.6 158.4 40 164.8C38.4 171.2 41.6 177.6 48 179.2C93.6 192.8 168 190.4 216 161.6C221.6 158.4 224 150.4 220.8 144.8C216.8 140.8 209.6 139.2 203.2 142.4z" />
    <glyph glyph-name="logo-trello"
      unicode="&#xEA49;"
      horiz-adv-x="256" d="M224 256H32C14.4 256 0 241.6 0 224V32C0 14.4 14.4 0 32 0H224C241.6 0 256 14.4 256 32V224C256 241.6 241.6 256 224 256zM112 64C112 55.2 104.8 48 96 48H48C39.2 48 32 55.2 32 64V208C32 216.8 39.2 224 48 224H96C104.8 224 112 216.8 112 208V64zM224 128C224 119.2 216.8 112 208 112H160C151.2 112 144 119.2 144 128V208C144 216.8 151.2 224 160 224H208C216.8 224 224 216.8 224 208V128z" />
    <glyph glyph-name="logo-tumblr"
      unicode="&#xEA4A;"
      horiz-adv-x="256" d="M189.6 51.2C184.8 48.8 176 47.2 168.8 46.4C148 46.4 144 61.6 144 72V152H195.2V190.4H144V256C144 256 107.2 256 106.4 256C105.6 256 104.8 255.2 104.8 254.4C102.4 234.4 93.6 199.2 54.4 185.6V152H80V68C80 39.2 100.8 -1.6 156.8 0C176 0 196.8 8 200.8 15.2L189.6 51.2z" />
    <glyph glyph-name="logo-twitter"
      unicode="&#xEA4B;"
      horiz-adv-x="256" d="M256 207.2C246.4 203.2 236.8 200 225.6 199.2C236.8 205.6 244.8 216 248.8 228C238.4 221.6 227.2 217.6 215.2 215.2C205.6 225.6 192 232 177.6 232C148.8 232 124.8 208.8 124.8 179.2C124.8 175.2 125.6 171.2 126.4 167.2C82.4 169.6 44 190.4 17.6 222.4C12.8 214.4 10.4 205.6 10.4 196C10.4 177.6 20 161.6 33.6 152C24.8 152 16.8 154.4 9.6 158.4C9.6 158.4 9.6 157.6 9.6 157.6C9.6 132 28 111.2 52 106.4C47.2 105.6 43.2 104.8 38.4 104.8C35.2 104.8 32 104.8 28.8 105.6C35.2 84.8 55.2 69.6 77.6 68.8C60 54.4 36.8 46.4 12 46.4C8 46.4 3.2 46.4 -0.8 47.2C23.2 32.8 51.2 24 80.8 24C177.6 24 230.4 104 230.4 173.6C230.4 176 230.4 178.4 230.4 180C240 188 248.8 196.8 256 207.2z" />
    <glyph glyph-name="logo-vimeo"
      unicode="&#xEA4C;"
      horiz-adv-x="256" d="M256 187.2C255.2 162.4 237.6 128 204 84.8C168.8 39.2 140 16.8 116 16.8C100.8 16.8 88.8 30.4 78.4 58.4C71.2 84 64.8 108.8 57.6 134.4C49.6 161.6 41.6 176 32.8 176C31.2 176 24 172 12.8 164L0 179.2C12.8 190.4 24.8 201.6 37.6 212.8C54.4 227.2 67.2 235.2 75.2 236C95.2 237.6 107.2 224 112 195.2C116.8 164 120.8 144 122.4 136.8C128 110.4 134.4 97.6 141.6 97.6C147.2 97.6 155.2 106.4 165.6 123.2C176 140 182.4 152.8 183.2 161.6C184.8 176 179.2 183.2 165.6 183.2C159.2 183.2 152.8 181.6 146.4 179.2C159.2 220.8 183.2 240.8 218.4 239.2C244.8 237.6 257.6 220.8 256 187.2z" />
    <glyph glyph-name="logo-vine"
      unicode="&#xEA4D;"
      horiz-adv-x="256" d="M240 128.8C233.6 127.2 227.2 126.4 221.6 126.4C189.6 126.4 164.8 148.8 164.8 188C164.8 207.2 172 217.6 182.4 217.6C192.8 217.6 199.2 208.8 199.2 190.4C199.2 180 196.8 168.8 194.4 161.6C194.4 161.6 204 144 231.2 149.6C236.8 162.4 240 179.2 240 193.6C240 232.8 220 256 183.2 256C145.6 256 123.2 227.2 123.2 188.8C123.2 151.2 140.8 118.4 170.4 104C158.4 79.2 142.4 57.6 126.4 41.6C96.8 77.6 70.4 124.8 59.2 217.6H16C36 63.2 96 13.6 112 4C120.8 -1.6 128.8 -0.8 136.8 3.2C149.6 10.4 188 48.8 209.6 94.4C218.4 94.4 229.6 95.2 240.0000000000001 97.6V128.8z" />
    <glyph glyph-name="logo-vk"
      unicode="&#xEA4E;"
      horiz-adv-x="256" d="M216.552 256H39.448C17.664 256 0 238.336 0 216.552V39.448C0 17.664 17.664 0 39.448 0H216.552C238.336 0 256 17.664 256 39.448V216.552C256 238.336 238.336 256 216.552 256zM210.16 75.768H188.624C181.592 75.768 180.712 80.896 167.824 93.2C156.952 103.928 152.296 104.776 149.656 104.776C147.312 104.776 145.704 103.016 145.704 98.92V82.512C145.704 77.68 142.92 75.776 131.496 75.776C112.744 75.776 91.944 87.352 76.12 108.736C52.536 140.528 46.528 164.256 46.528 169.384C46.528 172.168 48.576 174.072 51.36 174.072H70.552C75.536 174.072 77.44 172.608 79.192 167.336C87.984 141.552 103.656 118.848 110.248 118.848C112.736 118.848 113.032 120.896 113.032 126.176V152.4C113.032 165.112 105.856 166.168 105.856 170.856C105.856 172.712 107.32 174.0800000000001 109.664 174.0800000000001H140.424C144.528 174.0800000000001 145.112 172.6160000000001 145.112 167.632V132.0320000000001C145.112 127.9680000000001 145.944 126.464 147.752 126.464C149.992 126.464 152.048 127.816 156.104 132.32C168.728 146.248 179.104 168.36 179.104 168.36C180.424 171.144 182.032 173.048 186.432 173.048C192.88 173.048 205.624 173.048 205.624 173.048C209.432 173.048 211.048 171 210.312 167.336C208.112 157.08 185.992 125.88 185.992 125.88C183.944 122.656 183.064 120.896 185.992 117.824C188.04 115.184 194.488 109.472 198.44 104.2C208.112 93.944 214.408 85.304 214.408 80.464C214.408 76.792 212.36 75.768 210.16 75.768z" />
    <glyph glyph-name="logo-wechat"
      unicode="&#xEA4F;"
      horiz-adv-x="256" d="M92.848 231.456C40.248 231.456 0 195.768 0 156.856S34.752 95.408 34.752 95.408L29.104 74C28.36 71.176 31.376 68.848 33.92 70.288L59.304 84.672C70.528 81.096 94.352 79.952 96.672 79.848C95.008 85.616 94.184 91.304 94.184 96.608C94.184 126.64 120.328 168.928 178.44 168.928C179.76 168.928 181.088 168.896 182.408 168.84C174.688 205.856 136.256 231.456 92.848 231.456zM58.232 169.472C51.856 169.472 46.696 174.64 46.696 181.008C46.696 187.384 51.864 192.544 58.232 192.544C64.608 192.544 69.768 187.376 69.768 181.008C69.768 174.632 64.6 169.472 58.232 169.472zM125.32 169.472C118.944 169.472 113.784 174.64 113.784 181.008C113.784 187.384 118.952 192.544 125.32 192.544C131.696 192.544 136.856 187.376 136.856 181.008C136.856 174.632 131.688 169.472 125.32 169.472zM256 101.312C256 135.392 216.016 160.344 178.448 160.344C125.312 160.344 102.776 121.968 102.776 96.616C102.776 71.208 125.32 32.888 178.448 32.888C190.2 32.888 200.544 34.576 209.536 37.56L229.52 24.88C231.096 23.88 233.096 25.296 232.672 27.112L228.136 46.792C247.016 59.936 256 80.664 256 101.312zM154.16 107.792C148.528 107.792 143.96 112.36 143.96 117.992C143.96 123.624 148.528 128.192 154.16 128.192C159.792 128.192 164.36 123.624 164.36 117.992C164.352 112.352 159.792 107.792 154.16 107.792zM205.144 107.792C199.512 107.792 194.944 112.36 194.944 117.992C194.944 123.624 199.512 128.192 205.144 128.192S215.344 123.624 215.344 117.992C215.344 112.352 210.776 107.792 205.144 107.792z" />
    </font>
</defs>
</svg>
